travismk
一代宗师

[2014] [其他] [WEB-1080P] 巴罗洛男孩 Barolo.Boys.the.Story.of.a.Revolution.2014.1080p.WEBRip.x264-RARBG 1.21GB

-->

帖子完整标题:巴罗洛男孩 Barolo.Boys.the.Story.of.a.Revolution.2014.1080p.WEBRip.x264-RARBG 1.21GB



◎译  名 巴罗洛男孩
◎片  名 barolo boys
◎年  代 2014
◎产  地 意大利
◎类  别 
◎语  言 英语,意大利语
◎上映日期 
◎IMDb评分 6.9/10 from 43 users
◎IMDb链接 https://www.imdb.com/title/tt3792124/
◎豆瓣评分 /10 from 0 users
◎豆瓣链接 https://movie.douban.com/subject/26868747/
◎主  演 乔·巴斯提亚尼齐 Joe Bastianich

◎标  签 纪录片 | 意大利 | Barolo | Wine | 饮食

◎简  介

  “他用一把锯子把父亲不愿换掉的又旧又大的木桶全部毁掉,他的父亲乔治瓦尼实在不明白这个年轻小伙的极端想法,父亲把儿子赶出家门,即使在两年后离开人世前也无法释怀……”近日,一部有关意大利巴罗洛(Barolo)产区的纪录片正式发布,该纪录片描述了上世纪80年代在巴罗洛发生的酿酒风潮改革。
  
  当年被父亲赶出家门的“巴罗洛男孩”如今已不再年少,他在影片中亲身叙述了当年的“年少轻狂”。数十年时光飞逝,他已成为皮埃蒙特(Piedmont)地区酿酒界的改革先驱之一,他就是伊林·奥特(Elio Altare),以他的名字命名的酒庄,如今是意大利仅有的获得超过20个三个酒杯(《大红虾》(Gambero Rosso)“三杯奖”的最高级别)的三家酒庄之一。由导演保罗·卡萨里(Paolo Casalis)与迪斯安奴·佳雅(Tiziano Gaia)执导的纪录片《巴罗洛男孩》,正是讲述了80年代,一群年轻的疯狂的酿酒师是如何变革该区的酿酒风潮,目前,该纪录片可透过官方网站购买DVD版本或在线付费观看。

Video
ID : 1
Format : AVC
Format/Info : Advanced Video Codec
Format profile : [email protected]
Format settings : CABAC / 4 Ref Frames
Format settings, CABAC : Yes
Format settings, Reference frames : 4 frames
Codec ID : avc1
Codec ID/Info : Advanced Video Coding
Duration : 1 h 3 min
Bit rate : 2 500 kb/s
Width : 1 920 pixels
Height : 1 080 pixels
Display aspect ratio : 16:9
Frame rate mode : Constant
Frame rate : 25.000 FPS
Color space : YUV
Chroma subsampling : 4:2:0
Bit depth : 8 bits
Scan type : Progressive
Bits/(Pixel*Frame) : 0.048
Stream size : 1.11 GiB (92%)
Writing library : x264 core 152 r2851M ba24899
Encoding settings : cabac=1 / ref=4 / deblock=1:-1:-1 / analyse=0x3:0x113 / me=umh / subme=9 / psy=1 / psy_rd=1.00:0.15 / mixed_ref=1 / me_range=24 / chroma_me=1 / trellis=2 / 8x8dct=1 / cqm=0 / deadzone=21,11 / fast_pskip=1 / chroma_qp_offset=-3 / threads=16 / lookahead_threads=4 / sliced_threads=0 / nr=0 / decimate=1 / interlaced=0 / bluray_compat=0 / constrained_intra=0 / bframes=3 / b_pyramid=2 / b_adapt=2 / b_bias=0 / direct=3 / weightb=1 / open_gop=0 / weightp=2 / keyint=250 / keyint_min=25 / scenecut=40 / intra_refresh=0 / rc_lookahead=50 / rc=2pass / mbtree=1 / bitrate=2500 / ratetol=1.0 / qcomp=0.60 / qpmin=0 / qpmax=69 / qpstep=4 / cplxblur=20.0 / qblur=0.5 / vbv_maxrate=31250 / vbv_bufsize=31250 / nal_hrd=none / filler=0 / ip_ratio=1.40 / aq=3:1.00
Encoded date : UTC 2021-01-13 14:33:55
Tagged date : UTC 2021-01-13 14:33:55
Codec configuration box : avcC

Audio
ID : 2
Format : AAC LC
Format/Info : Advanced Audio Codec Low Complexity
Codec ID : mp4a-40-2
Duration : 1 h 3 min
Bit rate mode : Constant
Bit rate : 224 kb/s
Channel(s) : 2 channels
Channel layout : L R
Sampling rate : 48.0 kHz
Frame rate : 46.875 FPS (1024 SPF)
Compression mode : Lossy
Stream size : 102 MiB (8%)
Language : English
Default : Yes
Alternate group : 1
Encoded date : UTC 2021-01-13 14:33:55
Tagged date : UTC 2021-01-13 14:33:55





1 个附件 售价 大小 下载 时间

Barolo.Boys.the.Story.of.a.Revolution.2014.1080p.WEBRip.x264-RARBG.zip 0 金币 12.85K 70 次 11天前

#1楼
发帖时间:2021-01-14 12:02:40   |   回复数:0
游客组