travismk
一代宗师

[更 早] [欧美] [喜剧] [WEB-1080P] 草地英熊/乡巴熊 The.Country.Bears.2002.1080p.DSNP.WEBRip.DDP5.1.x264-PD 5.40GB

-->

帖子完整标题:草地英熊/乡巴熊 The.Country.Bears.2002.1080p.DSNP.WEBRip.DDP5.1.x264-PD 5.40GB



◎译  名 草地英熊/乡巴熊/乡村熊
◎片  名 The Country Bears
◎年  代 2002
◎产  地 美国
◎类  别 喜剧 / 音乐
◎语  言 英语
◎上映日期 2002-07-26
◎IMDb评分 4.1/10 from 5087 users
◎IMDb链接 https://www.imdb.com/title/tt0276033/
◎豆瓣评分 5.8/10 from 57 users
◎豆瓣链接 https://movie.douban.com/subject/1307518/
◎片  长 88 分钟
◎编  剧 马克·佩雷斯 Mark Perez
◎主  演 海利·乔·奥斯蒙 Haley Joel Osment
      戴德里克·巴德 Diedrich Bader
      詹姆斯·盖蒙 James Gammon
      布拉德·加内特 Brad Garrett
      托比·哈斯 Toby Huss
      凯文·迈克尔·理查德森 Kevin Michael Richardson
      斯蒂芬·鲁特 Stephen Root
      克里斯托弗·沃肯 Christopher Walken
      斯蒂芬·托布罗斯基 Stephen Tobolowsky
      达里尔·米切尔 Daryl Mitchell
      迈克·康纳·盖尼 M.C. Gainey
      阿历克斯·罗克 Alex Rocco
      米根·费伊 Meagen Fay
      艾力·马伦斯奥 Eli Marienthal
      John Hiatt
      艾勒比 Xzibit
      凯文·亚历山大·斯蒂亚 Kevin Alexander Stea
      Jennifer Paige
      Michael Lawrence Morgan
      威利·纳尔逊 Willie Nelson
      布莱恩·赛特泽 Brian Setzer
      唐·亨利 Don Henley
      Bonnie Raitt
      韦克莱夫·让 Wyclef Jean
      埃尔顿·约翰 Elton John
      Krystal
      唐·渥斯 Don Was
      密斯提·罗萨斯 Misty Rosas
      Brian La Rosa
      奎恩·拉提法 Queen Latifah
      Arthur F. Repola
      杰斯·哈梅尔 Jess Harnell
      伊丽莎白·戴利 Elizabeth Daily
      Colin Hay
      布兰登·亨舍尔 Brandon Henschel
      Marc C. Geschwind
      Patrice Fisher
      Davey Faragher
      奇普·齐纳里 Chip Chinery
      Timothy Anderson

◎标  签 美国 | Disney | 美国电影 | 音乐 | 动画 | 喜剧 | HaleyJoelOsment | 2002

◎简  介

  暂无相关剧情介绍

Video
ID : 1
Format : AVC
Format/Info : Advanced Video Codec
Format profile : [email protected]
Format settings : CABAC / 4 Ref Frames
Format settings, CABAC : Yes
Format settings, Reference frames : 4 frames
Codec ID : V_MPEG4/ISO/AVC
Duration : 1 h 28 min
Bit rate mode : Variable
Bit rate : 8 489 kb/s
Maximum bit rate : 12.7 Mb/s
Width : 1 920 pixels
Height : 1 080 pixels
Display aspect ratio : 16:9
Frame rate mode : Constant
Frame rate : 23.976 (24000/1001/189150) FPS
Color space : YUV
Chroma subsampling : 4:2:0
Bit depth : 8 bits
Scan type : Progressive
Bits/(Pixel*Frame) : 0.171
Stream size : 5.24 GiB (97%)
Default : Yes
Forced : No
Color range : Limited
Color primaries : BT.709
Transfer characteristics : BT.709
Matrix coefficients : BT.709

Audio
ID : 2
Format : E-AC-3
Format/Info : Enhanced AC-3
Commercial name : Dolby Digital Plus
Codec ID : A_EAC3
Duration : 1 h 28 min
Bit rate mode : Constant
Bit rate : 256 kb/s
Channel(s) : 6 channels
Channel layout : L R C LFE Ls Rs
Sampling rate : 48.0 kHz
Frame rate : 31.250 FPS (1536 SPF)
Compression mode : Lossy
Stream size : 162 MiB (3%)
Language : English
Service kind : Complete Main
Default : No
Forced : No

Text #1
ID : 3
Format : UTF-8
Codec ID : S_TEXT/UTF8
Codec ID/Info : UTF-8 Plain Text
Duration : 1 h 20 min
Bit rate : 1 b/s
Count of elements : 39
Stream size : 1.14 KiB (0%)
Title : Brazilian (Forced)
Language : Portuguese
Default : Yes
Forced : Yes

Text #2
ID : 4
Format : UTF-8
Codec ID : S_TEXT/UTF8
Codec ID/Info : UTF-8 Plain Text
Duration : 1 h 28 min
Bit rate : 68 b/s
Count of elements : 1958
Stream size : 44.4 KiB (0%)
Title : SDH
Language : English
Default : No
Forced : No

Text #3
ID : 5
Format : UTF-8
Codec ID : S_TEXT/UTF8
Codec ID/Info : UTF-8 Plain Text
Duration : 1 h 28 min
Bit rate : 50 b/s
Count of elements : 1227
Stream size : 32.7 KiB (0%)
Title : Brazilian
Language : Portuguese
Default : No
Forced : No





1 个附件 售价 大小 下载 时间

The.Country.Bears.2002.1080p.DSNP.WEBRip.DDP5.1.x264-PD.zip 0 金币 27.68K 84 次 2天前

#1楼
发帖时间:2021-01-14 11:16:00   |   回复数:0
游客组