travismk
一代宗师

[更 早] [欧美] [剧情] [WEB-1080P] 脱逃神童 The.Escape.Artist.1982.1080p.HMAX.WEBRip.DD2.0.x264-PLiSSKEN 5.65GB

-->

帖子完整标题:脱逃神童 The.Escape.Artist.1982.1080p.HMAX.WEBRip.DD2.0.x264-PLiSSKEN 5.65GB



◎译  名 脱逃神童
◎片  名 The Escape Artist
◎年  代 1982
◎产  地 美国
◎类  别 剧情
◎语  言 英语
◎上映日期 1982-05-28
◎IMDb评分 6.2/10 from 621 users
◎IMDb链接 https://www.imdb.com/title/tt0083900/
◎豆瓣评分 /10 from 0 users
◎豆瓣链接 https://movie.douban.com/subject/1306380/
◎片  长 94 分钟
◎导  演 凯莱布·德夏奈尔 Caleb Deschanel
◎编  剧 梅丽莎·马西森 Melissa Mathison
◎主  演 劳尔·胡里亚 Raul Julia
      格里芬·奥尼尔 Griffin O'Neal
      戴斯·阿纳兹 Desi Arnaz
      特瑞·加尔 Teri Garr
      琼·哈克特 Joan Hackett
      道格·麦克格拉斯 Doug McGrath
      约翰·P.瑞安 John P. Ryan
      汤姆·西尼奥雷利 Tom Signorelli
      Hal Williams
      理查德·布拉德福德 Richard Bradford
      亨兹·豪尔 Huntz Hall
      Tom Mahoney
      杰基·库根 Jackie Coogan
      M·埃梅特·沃尔什 M. Emmet Walsh
      哈里·安德森 Harry Anderson
      伊丽莎白·戴利 Elizabeth Daily
      Helen Page Camp
      哈利·凯撒 Harry Caesar
      George Brengel
      大卫·科列侬 David Clennon
      Gabriel Dell
      卡琳·格林 Carlin Glynn
      玛格丽特·拉德 Margaret Ladd

◎标  签 越狱 | 儿童 | 美国 | 美国电影 | 高智商 | 逃狱风云 | 被忽视的片子 | 犯罪

◎简  介

  暂无相关剧情介绍

Video
ID : 1
Format : AVC
Format/Info : Advanced Video Codec
Format profile : [email protected]
Format settings : CABAC / 4 Ref Frames
Format settings, CABAC : Yes
Format settings, Reference frames : 4 frames
Codec ID : V_MPEG4/ISO/AVC
Duration : 1 h 33 min
Bit rate mode : Variable
Bit rate : 8 217 kb/s
Maximum bit rate : 12.4 Mb/s
Width : 1 920 pixels
Height : 1 080 pixels
Display aspect ratio : 16:9
Frame rate mode : Constant
Frame rate : 23.976 (24000/1001/189150) FPS
Color space : YUV
Chroma subsampling : 4:2:0
Bit depth : 8 bits
Scan type : Progressive
Bits/(Pixel*Frame) : 0.165
Stream size : 5.39 GiB (96%)
Default : Yes
Forced : No
Color range : Limited
Color primaries : BT.709
Transfer characteristics : BT.709
Matrix coefficients : BT.709

Audio
ID : 2
Format : AC-3
Format/Info : Audio Coding 3
Commercial name : Dolby Digital
Codec ID : A_AC3
Duration : 1 h 33 min
Bit rate mode : Constant
Bit rate : 384 kb/s
Channel(s) : 2 channels
Channel layout : L R
Sampling rate : 48.0 kHz
Frame rate : 31.250 FPS (1536 SPF)
Compression mode : Lossy
Stream size : 258 MiB (4%)
Language : English
Service kind : Complete Main
Default : Yes
Forced : No

Text #1
ID : 3
Format : UTF-8
Codec ID : S_TEXT/UTF8
Codec ID/Info : UTF-8 Plain Text
Duration : 1 h 30 min
Bit rate : 53 b/s
Count of elements : 2119
Stream size : 35.3 KiB (0%)
Language : English
Default : No
Forced : No

Text #2
ID : 4
Format : UTF-8
Codec ID : S_TEXT/UTF8
Codec ID/Info : UTF-8 Plain Text
Duration : 1 h 29 min
Bit rate : 41 b/s
Count of elements : 1345
Stream size : 27.3 KiB (0%)
Language : Spanish
Default : No
Forced : No





1 个附件 售价 大小 下载 时间

The.Escape.Artist.1982.1080p.HMAX.WEBRip.DD2.0.x264-PLiSSKEN.zip 0 金币 28.92K 147 次 2天前

#1楼
发帖时间:2021-01-13 22:40:00   |   回复数:0
游客组