travismk
一代宗师

[2020] [其他] [恐怖] [WEB-1080P] 阴声 Dont.Listen.2020.SPANISH.1080p.NF.WEBRip.DDP5.1.x264-CM 3.66GB

-->

帖子完整标题:阴声 Dont.Listen.2020.SPANISH.1080p.NF.WEBRip.DDP5.1.x264-CM 3.66GB



◎译  名 阴声
◎片  名 Voces
◎年  代 2020
◎产  地 西班牙
◎类  别 恐怖
◎语  言 西班牙语
◎上映日期 2020-07-14(西班牙)
◎IMDb评分 6.3/10 from 715 users
◎IMDb链接 https://www.imdb.com/title/tt11750282/
◎豆瓣评分 /10 from 0 users
◎豆瓣链接 https://movie.douban.com/subject/35161323/
◎片  长 97分钟
◎导  演 安格尔·戈麦斯·埃尔南德斯 Angel Gómez Hernández
◎编  剧 安格尔·戈麦斯·埃尔南德斯 Angel Gómez Hernández
◎主  演 鲁道夫·桑丘 Rodolfo Sancho
      安娜·费尔南德斯 Ana Fernández
      拉蒙·巴雷阿 Ramón Barea
      贝伦·法布拉 Belén Fabra
      内瑞雅·巴德洛斯 Nerea Barros
      José Bermúdez
      Rosa álvarez

◎标  签 恐怖 | 西班牙 | 欧洲电影 | 2020

◎简  介

  Daniel and Sara have a 9-year-old son, Eric, and they've just moved to a new home not knowing the neighbours call it "the house of the voices". Eric is the first one to notice the odd noises behind each door.

Video
ID : 1
Format : AVC
Format/Info : Advanced Video Codec
Format profile : [email protected]
Format settings : CABAC / 4 Ref Frames
Format settings, CABAC : Yes
Format settings, Reference frames : 4 frames
Codec ID : V_MPEG4/ISO/AVC
Duration : 1 h 38 min
Bit rate mode : Variable
Bit rate : 4 677 kb/s
Maximum bit rate : 20.0 Mb/s
Width : 1 920 pixels
Height : 1 080 pixels
Display aspect ratio : 16:9
Frame rate mode : Constant
Frame rate : 24.000 FPS
Color space : YUV
Chroma subsampling : 4:2:0
Bit depth : 8 bits
Scan type : Progressive
Bits/(Pixel*Frame) : 0.094
Stream size : 3.22 GiB (88%)
Writing library : x264 core 148 r2722 1b0121b
Encoding settings : cabac=1 / ref=4 / deblock=1:0:0 / analyse=0x3:0x111 / me=umh / subme=10 / psy=1 / psy_rd=1.00:0.00 / mixed_ref=1 / me_range=120 / chroma_me=1 / trellis=2 / 8x8dct=1 / cqm=0 / deadzone=21,11 / fast_pskip=1 / chroma_qp_offset=-2 / threads=8 / lookahead_threads=2 / sliced_threads=0 / nr=0 / decimate=1 / interlaced=0 / bluray_compat=0 / stitchable=1 / constrained_intra=0 / bframes=16 / b_pyramid=2 / b_adapt=2 / b_bias=0 / direct=3 / weightb=1 / open_gop=0 / weightp=2 / keyint=240 / keyint_min=121 / scenecut=0 / intra_refresh=0 / rc_lookahead=240 / rc=crf / mbtree=1 / crf=16.0 / qcomp=0.50 / qpmin=6 / qpmax=51 / qpstep=4 / vbv_maxrate=20000 / vbv_bufsize=25000 / crf_max=0.0 / nal_hrd=vbr / filler=0 / ip_ratio=1.40 / aq=1:0.80
Default : Yes
Forced : No

Audio
ID : 2
Format : E-AC-3
Format/Info : Enhanced AC-3
Commercial name : Dolby Digital Plus
Codec ID : A_EAC3
Duration : 1 h 38 min
Bit rate mode : Constant
Bit rate : 640 kb/s
Channel(s) : 6 channels
Channel layout : L R C LFE Ls Rs
Sampling rate : 48.0 kHz
Frame rate : 31.250 FPS (1536 SPF)
Compression mode : Lossy
Stream size : 451 MiB (12%)
Language : Spanish
Service kind : Complete Main
Default : No
Forced : No

Text #1
ID : 3
Format : UTF-8
Codec ID : S_TEXT/UTF8
Codec ID/Info : UTF-8 Plain Text
Duration : 1 h 36 min
Bit rate : 25 b/s
Count of elements : 654
Stream size : 18.4 KiB (0%)
Language : English
Default : Yes
Forced : No

Text #2
ID : 4
Format : UTF-8
Codec ID : S_TEXT/UTF8
Codec ID/Info : UTF-8 Plain Text
Duration : 1 h 37 min
Bit rate : 45 b/s
Count of elements : 1263
Stream size : 32.2 KiB (0%)
Title : SDH
Language : English
Default : No
Forced : No

Text #3
ID : 5
Format : UTF-8
Codec ID : S_TEXT/UTF8
Codec ID/Info : UTF-8 Plain Text
Duration : 1 h 35 min
Bit rate : 37 b/s
Count of elements : 822
Stream size : 26.2 KiB (0%)
Title : European Spanish [SDH]
Language : Spanish
Default : No
Forced : No





1 个附件 售价 大小 下载 时间

Dont.Listen.2020.SPANISH.1080p.NF.WEBRip.DDP5.1.x264-CM.zip 0 金币 37.24K 2240 次 1月前

#1楼
发帖时间:2020-11-28 21:23:11   |   回复数:1
liyouchai
隐世仙人♂
谢谢楼主分享资源
1月前 #2楼
游客组