travismk
一代宗师

[更 早] [欧美] [剧情] [4K-原盘] 比佛利山超级警探/妙探出差 Beverly.Hills.Cop.1984.2160p.BluRay.REMUX.HEVC.DTS-HD.MA.5.1-FGT 4

-->

帖子完整标题:比佛利山超级警探/妙探出差 Beverly.Hills.Cop.1984.2160p.BluRay.REMUX.HEVC.DTS-HD.MA.5.1-FGT 49.35GB



◎译  名 比佛利山超级警探/妙探出差(港)/妙探出更/比佛利山警探/轰天雷/霹雳炮
◎片  名 Beverly Hills Cop
◎年  代 1984
◎产  地 美国
◎类  别 剧情 / 喜剧 / 动作 / 惊悚 / 犯罪
◎语  言 英语
◎上映日期 1984-12-05
◎IMDb评分 7.3/10 from 161403 users
◎IMDb链接 https://www.imdb.com/title/tt0086960/
◎豆瓣评分 6.9/10 from 1971 users
◎豆瓣链接 https://movie.douban.com/subject/1301782/
◎片  长 105 分钟
◎导  演 马丁·布莱斯特 Martin Brest
◎编  剧 小丹尼尔·皮特里 Daniel Petrie Jr. / 达尼洛·巴赫 Danilo Bach
◎主  演 艾迪·墨菲 Eddie Murphy
      祖德·莱茵霍尔德 Judge Reinhold
      约翰·阿什顿 John Ashton
      莉莎·埃尔巴赫 Lisa Eilbacher
      罗尼·考克斯 Ronny Cox
      米娜·苏瓦丽 Mena Suvari
      迈克尔切姆平 Michael Champion
      乔纳森·班克斯 Jonathan Banks
      詹姆斯·拉索 James Russo

◎标  签 喜剧 | 美国 | 动作 | 犯罪 | 1984 | 美国电影 | 警匪 | EddieMurphy

◎简  介

  艾索(艾迪?墨菲 Eddie Murphy 饰)是底特律黑白两道的大名人,身为警探,却也不时干些偷鸡摸狗的勾当,而且他侦办案件时经常不按程序办事,上司对他十分头痛。这天,艾索因为敲诈烟贩而差点被开除出去,幸亏好运气才免遭于难。
  
  艾索偶遇了一位刚出狱的好友,这人带着巨额的德国债券来到了底特律。两人重逢后不久,艾索的这位朋友就被谋杀了。深谙此事不简单,艾索开始了调查。他独自一人追踪嫌疑人维克多来到了好莱坞的比佛利山,正当他准备上前盘问时,却被当地警察带回了警局。当艾索调查得悉维多克的确在贩毒时,当地的警长同意介入调查,却将艾索打发回老家。艾索只好劝说当地的一名警员比利(祖德?莱茵霍尔德 Judge Reinhold 饰)和他合作,两人开始了私自调查。

◎获奖情况

  第57届奥斯卡金像奖 ?(1985)
  最佳原创剧本(提名) 小丹尼尔·皮特里?/?达尼洛·巴赫

Video
ID : 1
ID in the original source medium : 4113 (0x1011)
Format : HEVC
Format/Info : High Efficiency Video Coding
Format profile : Main [email protected]@High
HDR format : SMPTE ST 2086, HDR10 compatible
Codec ID : V_MPEGH/ISO/HEVC
Duration : 1 h 45 min
Bit rate : 61.2 Mb/s
Width : 3 840 pixels
Height : 2 160 pixels
Display aspect ratio : 16:9
Frame rate mode : Constant
Frame rate : 23.976 (24000/1001/189150) FPS
Color space : YUV
Chroma subsampling : 4:2:0 (Type 2)
Bit depth : 10 bits
Bits/(Pixel*Frame) : 0.308
Stream size : 44.9 GiB (91%)
Title : Beverly.Hills.Cop.1984.2160p.BluRay.REMUX.HEVC.DTS-HD.MA.5.1-FGT
Language : English
Default : No
Forced : No
Color range : Limited
Color primaries : BT.2020
Transfer characteristics : PQ
Matrix coefficients : BT.2020 non-constant
Mastering display color primaries : Display P3
Mastering display luminance : min: 0.0001 cd/m2, max: 1000 cd/m2
Original source medium : Blu-ray

Audio #1
ID : 2
ID in the original source medium : 4352 (0x1100)
Format : DTS XLL
Format/Info : Digital Theater Systems
Commercial name : DTS-HD Master Audio
Codec ID : A_DTS
Duration : 1 h 45 min
Bit rate mode : Variable
Bit rate : 3 965 kb/s
Channel(s) : 6 channels
Channel layout : C L R Ls Rs LFE
Sampling rate : 48.0 kHz
Frame rate : 93.750 FPS (512 SPF)
Bit depth : 24 bits
Compression mode : Lossless
Stream size : 2.91 GiB (6%)
Title : Beverly.Hills.Cop.1984.2160p.BluRay.REMUX.HEVC.DTS-HD.MA.5.1-FGT
Language : English
Default : Yes
Forced : No
Original source medium : Blu-ray

Audio #2
ID : 3
ID in the original source medium : 4353 (0x1101)
Format : AC-3
Format/Info : Audio Coding 3
Commercial name : Dolby Digital
Codec ID : A_AC3
Duration : 1 h 45 min
Bit rate mode : Constant
Bit rate : 640 kb/s
Channel(s) : 6 channels
Channel layout : L R C LFE Ls Rs
Sampling rate : 48.0 kHz
Frame rate : 31.250 FPS (1536 SPF)
Compression mode : Lossy
Stream size : 481 MiB (1%)
Title : Beverly.Hills.Cop.1984.2160p.BluRay.REMUX.HEVC.DTS-HD.MA.5.1-FGT
Language : English
Service kind : Complete Main
Default : No
Forced : No
Original source medium : Blu-ray

Audio #3
ID : 4
ID in the original source medium : 4354 (0x1102)
Format : AC-3
Format/Info : Audio Coding 3
Commercial name : Dolby Digital
Codec ID : A_AC3
Duration : 1 h 45 min
Bit rate mode : Constant
Bit rate : 224 kb/s
Channel(s) : 2 channels
Channel layout : L R
Sampling rate : 48.0 kHz
Frame rate : 31.250 FPS (1536 SPF)
Compression mode : Lossy
Stream size : 168 MiB (0%)
Title : Beverly.Hills.Cop.1984.2160p.BluRay.REMUX.HEVC.DTS-HD.MA.5.1-FGT
Language : German
Service kind : Complete Main
Default : No
Forced : No
Original source medium : Blu-ray

Audio #4
ID : 5
ID in the original source medium : 4355 (0x1103)
Format : AC-3
Format/Info : Audio Coding 3
Commercial name : Dolby Digital
Codec ID : A_AC3
Duration : 1 h 45 min
Bit rate mode : Constant
Bit rate : 224 kb/s
Channel(s) : 2 channels
Channel layout : L R
Sampling rate : 48.0 kHz
Frame rate : 31.250 FPS (1536 SPF)
Compression mode : Lossy
Stream size : 168 MiB (0%)
Title : Beverly.Hills.Cop.1984.2160p.BluRay.REMUX.HEVC.DTS-HD.MA.5.1-FGT
Language : French
Service kind : Complete Main
Default : No
Forced : No
Original source medium : Blu-ray

Audio #5
ID : 6
ID in the original source medium : 4356 (0x1104)
Format : AC-3
Format/Info : Audio Coding 3
Commercial name : Dolby Digital
Codec ID : A_AC3
Duration : 1 h 45 min
Bit rate mode : Constant
Bit rate : 224 kb/s
Channel(s) : 2 channels
Channel layout : L R
Sampling rate : 48.0 kHz
Frame rate : 31.250 FPS (1536 SPF)
Compression mode : Lossy
Stream size : 168 MiB (0%)
Title : Beverly.Hills.Cop.1984.2160p.BluRay.REMUX.HEVC.DTS-HD.MA.5.1-FGT
Language : English
Service kind : Complete Main
Default : No
Forced : No
Original source medium : Blu-ray

Audio #6
ID : 7
ID in the original source medium : 4357 (0x1105)
Format : AC-3
Format/Info : Audio Coding 3
Commercial name : Dolby Digital
Codec ID : A_AC3
Duration : 1 h 45 min
Bit rate mode : Constant
Bit rate : 640 kb/s
Channel(s) : 6 channels
Channel layout : L R C LFE Ls Rs
Sampling rate : 48.0 kHz
Frame rate : 31.250 FPS (1536 SPF)
Compression mode : Lossy
Stream size : 481 MiB (1%)
Title : Beverly.Hills.Cop.1984.2160p.BluRay.REMUX.HEVC.DTS-HD.MA.5.1-FGT
Language : English
Service kind : Complete Main
Default : No
Forced : No
Original source medium : Blu-ray

Text #1
ID : 8
Format : UTF-8
Codec ID : S_TEXT/UTF8
Codec ID/Info : UTF-8 Plain Text
Duration : 1 h 38 min
Bit rate : 73 b/s
Count of elements : 1328
Stream size : 53.2 KiB (0%)
Title : English-SRT
Language : English
Default : Yes
Forced : No

Text #2
ID : 9
Format : UTF-8
Codec ID : S_TEXT/UTF8
Codec ID/Info : UTF-8 Plain Text
Duration : 1 h 40 min
Bit rate : 75 b/s
Count of elements : 1408
Stream size : 55.3 KiB (0%)
Title : English-SDH-SRT
Language : English
Default : No
Forced : No

Text #3
ID : 10
ID in the original source medium : 4768 (0x12A0)
Format : PGS
Muxing mode : zlib
Codec ID : S_HDMV/PGS
Codec ID/Info : Picture based subtitle format used on BDs/HD-DVDs
Duration : 1 h 38 min
Bit rate : 58.2 kb/s
Count of elements : 2642
Stream size : 40.9 MiB (0%)
Title : English-PGS
Language : English
Default : No
Forced : No
Original source medium : Blu-ray

Text #4
ID : 11
ID in the original source medium : 4769 (0x12A1)
Format : PGS
Muxing mode : zlib
Codec ID : S_HDMV/PGS
Codec ID/Info : Picture based subtitle format used on BDs/HD-DVDs
Duration : 1 h 40 min
Bit rate : 59.8 kb/s
Count of elements : 2816
Stream size : 42.8 MiB (0%)
Title : English-SDH-PGS
Language : English
Default : No
Forced : No
Original source medium : Blu-ray

Text #5
ID : 12
ID in the original source medium : 4770 (0x12A2)
Format : PGS
Muxing mode : zlib
Codec ID : S_HDMV/PGS
Codec ID/Info : Picture based subtitle format used on BDs/HD-DVDs
Duration : 1 h 42 min
Bit rate : 55.3 kb/s
Count of elements : 2656
Stream size : 40.5 MiB (0%)
Title : German-PGS
Language : German
Default : No
Forced : No
Original source medium : Blu-ray

Text #6
ID : 13
ID in the original source medium : 4771 (0x12A3)
Format : PGS
Muxing mode : zlib
Codec ID : S_HDMV/PGS
Codec ID/Info : Picture based subtitle format used on BDs/HD-DVDs
Duration : 1 h 44 min
Bit rate : 46.6 kb/s
Count of elements : 2558
Stream size : 34.7 MiB (0%)
Title : French-PGS
Language : French
Default : No
Forced : No
Original source medium : Blu-ray

Text #7
ID : 14
ID in the original source medium : 4772 (0x12A4)
Format : PGS
Muxing mode : zlib
Codec ID : S_HDMV/PGS
Codec ID/Info : Picture based subtitle format used on BDs/HD-DVDs
Duration : 1 h 44 min
Bit rate : 51.5 kb/s
Count of elements : 1890
Stream size : 38.6 MiB (0%)
Title : English-COMMENTARY-PGS
Language : English
Default : No
Forced : No
Original source medium : Blu-ray

Text #8
ID : 15
ID in the original source medium : 4773 (0x12A5)
Format : PGS
Muxing mode : zlib
Codec ID : S_HDMV/PGS
Codec ID/Info : Picture based subtitle format used on BDs/HD-DVDs
Duration : 1 h 44 min
Bit rate : 44.5 kb/s
Count of elements : 1886
Stream size : 33.4 MiB (0%)
Title : German-COMMENTARY-PGS
Language : German
Default : No
Forced : No
Original source medium : Blu-ray

Text #9
ID : 16
ID in the original source medium : 4774 (0x12A6)
Format : PGS
Muxing mode : zlib
Codec ID : S_HDMV/PGS
Codec ID/Info : Picture based subtitle format used on BDs/HD-DVDs
Duration : 1 h 44 min
Bit rate : 43.4 kb/s
Count of elements : 1878
Stream size : 32.5 MiB (0%)
Title : French-COMMENTARY-PGS
Language : French
Default : No
Forced : No
Original source medium : Blu-ray

Menu
00:00:00.000 : en:Chapter 01
00:10:58.491 : en:Chapter 02
00:19:31.670 : en:Chapter 03
00:36:03.494 : en:Chapter 04
00:45:07.162 : en:Chapter 05
00:49:28.799 : en:Chapter 06
00:58:39.599 : en:Chapter 07
01:13:16.100 : en:Chapter 08
01:23:22.664 : en:Chapter 09
01:38:28.193 : en:Chapter 10
01:41:04.433 : en:Chapter 11





1 个附件 售价 大小 下载 时间

Beverly.Hills.Cop.1984.2160p.BluRay.REMUX.HEVC.DTS-HD.MA.5.1-FGT.zip 0 金币 124.08K 315 次 1月前

#1楼
发帖时间:2020-11-28 21:22:23   |   回复数:0
游客组