travismk
一代宗师

[更 早] [欧美] [恐怖] [BD-1080P] 窗上之脸 The.Face.At.The.Window.1939.1080p.BluRay.x264-HANDJOB 4.06GB

-->

帖子完整标题:窗上之脸 The.Face.At.The.Window.1939.1080p.BluRay.x264-HANDJOB 4.06GB



◎译  名 窗上之脸
◎片  名 The Face at the Window
◎年  代 1939
◎产  地 英国
◎类  别 恐怖 / 犯罪
◎语  言 英语
◎上映日期 1939
◎IMDb评分 6/10 from 366 users
◎IMDb链接 https://www.imdb.com/title/tt0031289/
◎豆瓣评分 /10 from 0 users
◎豆瓣链接 https://movie.douban.com/subject/5071348/
◎片  长 70 分钟
◎编  剧 阿瑟·理查德·罗林森 A.R. Rawlinson
◎主  演 Tod Slaughter
      John Warwick
      Aubrey Mallalieu
      Robert Adair
      Wallace Evennett
      Leonard Henry
      比尔·夏恩 Bill Shine
      Margaret Yarde

◎标  签 英国 | 不是默片

◎简  介

  Tod Slaughter was never well-known in the U.S. However, before Hammer Studios revived the genre in the late-1950s, Slaughter was British cinema's biggest (if also only) horror star. He'd successfully toured numerous grisly, vintage Victorian melodramas on the stage circuit for decades before someone thought of filming one in 1935. His surprise screen success resulted in ten such movies being released over the next five years (until the advent of World War II soured the public's taste for such campy mayhem). This later one, directed as usual by Henry King, was a bit glossier than most, reflecting the star's peak popularity. Here he plays a typical mustache-twirling dastardly villain, a wealthy aristocrat of 1880 Paris who schemes to marry a banker's unwilling daughter by any means. Meanwhile, a series of murders are being committed by the mysterious "wolf man" known as "Le Loup." As the written prologue makes clear, this feast of hammy hokum wasn't intended to be taken too seriously, but audiences at the time found them enjoyably shuddersome all the same. After his cinematic vogue ended, Slaughter returned to the stage (continuing to play villains such as "demon barber" Sweeney Todd) and later had a television suspense series.

Video
ID : 1
Format : AVC
Format/Info : Advanced Video Codec
Format profile : [email protected]
Format settings : CABAC / 5 Ref Frames
Format settings, CABAC : Yes
Format settings, Reference frames : 5 frames
Codec ID : V_MPEG4/ISO/AVC
Duration : 1 h 4 min
Bit rate : 8 572 kb/s
Width : 1 416 pixels
Height : 1 080 pixels
Display aspect ratio : 4:3
Frame rate mode : Constant
Frame rate : 23.976 (24000/1001/189150) FPS
Color space : YUV
Chroma subsampling : 4:2:0
Bit depth : 8 bits
Scan type : Progressive
Bits/(Pixel*Frame) : 0.234
Stream size : 3.87 GiB (95%)
Writing library : x264 core 157 r2935 545de2f
Encoding settings : cabac=1 / ref=5 / deblock=1:-3:-3 / analyse=0x3:0x133 / me=umh / subme=10 / psy=1 / psy_rd=1.00:0.00 / mixed_ref=1 / me_range=32 / chroma_me=1 / trellis=2 / 8x8dct=1 / cqm=0 / deadzone=21,11 / fast_pskip=0 / chroma_qp_offset=-2 / threads=18 / lookahead_threads=4 / sliced_threads=0 / nr=0 / decimate=0 / interlaced=0 / bluray_compat=0 / constrained_intra=0 / bframes=16 / b_pyramid=2 / b_adapt=2 / b_bias=0 / direct=3 / weightb=1 / open_gop=0 / weightp=1 / keyint=240 / keyint_min=24 / scenecut=40 / intra_refresh=0 / rc_lookahead=60 / rc=crf / mbtree=0 / crf=21.0 / qcomp=0.60 / qpmin=0 / qpmax=69 / qpstep=4 / vbv_maxrate=62500 / vbv_bufsize=78125 / crf_max=0.0 / nal_hrd=none / filler=0 / ip_ratio=1.40 / pb_ratio=1.30 / aq=2:1.00
Default : Yes
Forced : No
Color range : Limited
Color primaries : BT.709
Transfer characteristics : BT.709
Matrix coefficients : BT.709

Audio #1
ID : 2
Format : FLAC
Format/Info : Free Lossless Audio Codec
Codec ID : A_FLAC
Duration : 1 h 4 min
Bit rate mode : Variable
Bit rate : 329 kb/s
Channel(s) : 2 channels
Channel layout : L R
Sampling rate : 48.0 kHz
Frame rate : 11.719 FPS (4096 SPF)
Bit depth : 16 bits
Compression mode : Lossless
Stream size : 152 MiB (4%)
Writing library : libFLAC 1.2.1 (UTC 2007-09-17)
Language : English
Default : Yes
Forced : No

Audio #2
ID : 3
Format : AAC LC SBR
Format/Info : Advanced Audio Codec Low Complexity with Spectral Band Replication
Commercial name : HE-AAC
Format settings : Explicit
Codec ID : A_AAC-2
Duration : 1 h 4 min
Bit rate : 80.0 kb/s
Channel(s) : 2 channels
Channel layout : L R
Sampling rate : 48.0 kHz
Frame rate : 23.438 FPS (2048 SPF)
Compression mode : Lossy
Delay relative to video : 31 ms
Stream size : 37.0 MiB (1%)
Title : Commentary by Film Historian/Author Brett Wood
Language : English
Default : No
Forced : No

Text
ID : 4
Format : UTF-8
Codec ID : S_TEXT/UTF8
Codec ID/Info : UTF-8 Plain Text
Duration : 1 h 2 min
Bit rate : 89 b/s
Count of elements : 1191
Stream size : 40.6 KiB (0%)
Language : English
Default : No
Forced : No

Menu
00:00:00.000 : :Chapter 1
00:09:14.471 : :Chapter 2
00:15:54.829 : :Chapter 3
00:25:57.848 : :Chapter 4
00:34:56.595 : :Chapter 5
00:41:55.680 : :Chapter 6
00:49:07.987 : :Chapter 7
00:57:08.592 : :Chapter 8





1 个附件 售价 大小 下载 时间

The.Face.At.The.Window.1939.1080p.BluRay.x264-HANDJOB.zip 0 金币 42.04K 84 次 1月前

#1楼
发帖时间:2020-10-25 22:49:53   |   回复数:0
游客组