travismk
一代宗师

[2006] [其他] [剧情] [BD-1080P] 人性的弱点/交易追緝令 Exit.2006.SWEDISH.1080p.BluRay.x264-HANDJOB 8.08GB

-->

帖子完整标题:人性的弱点/交易追緝令 Exit.2006.SWEDISH.1080p.BluRay.x264-HANDJOB 8.08GB



◎译  名 人性的弱点/交易追緝令
◎片  名 Exit
◎年  代 2006
◎产  地 瑞典
◎类  别 剧情 / 悬疑 / 惊悚
◎语  言 瑞典语,丹麦语,英语
◎上映日期 2006-09-26
◎IMDb评分 5.8/10 from 1823 users
◎IMDb链接 https://www.imdb.com/title/tt0482957/
◎豆瓣评分 6.6/10 from 154 users
◎豆瓣链接 https://movie.douban.com/subject/1968641/
◎片  长 Germany: 100 分钟(European Film Market)
◎主  演 麦斯·米科尔森 Mads Mikkelsen
      亚历山大·斯卡斯加德 Alexander Skarsg?rd
      Stig Engstr?m
      Hassan Brijany
      伯杰·阿斯特 B?rje Ahlstedt
      Peter T?gtgren
      科拉·克劳泽 Kola Krauze
      克里斯蒂娜·托维斯 Kristina T?rnqvist
      Johan Rabaeus
      Maria Langhammer
      Bj?rn Gedda
      戈兰·福斯马克 G?ran Forsmark
      乌尔夫·弗里贝格 Ulf Friberg
      Vladimir Dikanski
      萨穆埃尔·弗洛勒 Samuel Fr?ler

◎标  签 人性 | MadsMikkelsen | 瑞典 | 丹麦 | 悬疑 | 犯罪 | AlexanderSkarsg?rd | 剧情

◎简  介

  在金融財政的諜對諜世界裡,有很多上流社會人士,各種權力鬥爭都攸關生死。Thomas的事業如日中天。眼看公司最賺錢的交易即將到手,他竟陷入了一座充滿欺騙的迷宮裡。

Video
ID : 1
Format : AVC
Format/Info : Advanced Video Codec
Format profile : [email protected]
Format settings : CABAC / 4 Ref Frames
Format settings, CABAC : Yes
Format settings, Reference frames : 4 frames
Codec ID : V_MPEG4/ISO/AVC
Duration : 1 h 40 min
Bit rate : 10.9 Mb/s
Width : 1 916 pixels
Height : 812 pixels
Display aspect ratio : 2.35:1
Frame rate mode : Constant
Frame rate : 25.000 FPS
Color space : YUV
Chroma subsampling : 4:2:0
Bit depth : 8 bits
Scan type : Progressive
Bits/(Pixel*Frame) : 0.280
Stream size : 7.63 GiB (94%)
Writing library : x264 core 157 r2935 545de2f
Encoding settings : cabac=1 / ref=4 / deblock=1:-3:-3 / analyse=0x3:0x133 / me=umh / subme=10 / psy=1 / psy_rd=1.00:0.00 / mixed_ref=1 / me_range=32 / chroma_me=1 / trellis=2 / 8x8dct=1 / cqm=0 / deadzone=21,11 / fast_pskip=0 / chroma_qp_offset=-2 / threads=25 / lookahead_threads=6 / sliced_threads=0 / nr=0 / decimate=0 / interlaced=0 / bluray_compat=0 / constrained_intra=0 / bframes=10 / b_pyramid=2 / b_adapt=2 / b_bias=0 / direct=3 / weightb=1 / open_gop=0 / weightp=2 / keyint=250 / keyint_min=25 / scenecut=40 / intra_refresh=0 / rc_lookahead=60 / rc=crf / mbtree=0 / crf=21.6 / qcomp=0.60 / qpmin=0 / qpmax=69 / qpstep=4 / vbv_maxrate=62500 / vbv_bufsize=78125 / crf_max=0.0 / nal_hrd=none / filler=0 / ip_ratio=1.40 / pb_ratio=1.30 / aq=2:1.00
Default : Yes
Forced : No
Color range : Limited
Color primaries : BT.709
Transfer characteristics : BT.709
Matrix coefficients : BT.709

Audio
ID : 2
Format : AC-3
Format/Info : Audio Coding 3
Commercial name : Dolby Digital
Codec ID : A_AC3
Duration : 1 h 40 min
Bit rate mode : Constant
Bit rate : 640 kb/s
Channel(s) : 6 channels
Channel layout : L R C LFE Ls Rs
Sampling rate : 48.0 kHz
Frame rate : 31.250 FPS (1536 SPF)
Compression mode : Lossy
Stream size : 458 MiB (6%)
Language : Swedish
Service kind : Complete Main
Default : Yes
Forced : No

Text #1
ID : 3
Format : UTF-8
Codec ID : S_TEXT/UTF8
Codec ID/Info : UTF-8 Plain Text
Duration : 1 h 36 min
Bit rate : 38 b/s
Count of elements : 673
Stream size : 27.0 KiB (0%)
Language : English
Default : Yes
Forced : No

Text #2
ID : 4
Format : PGS
Muxing mode : zlib
Codec ID : S_HDMV/PGS
Codec ID/Info : Picture based subtitle format used on BDs/HD-DVDs
Duration : 1 h 36 min
Bit rate : 27.1 kb/s
Count of elements : 1428
Stream size : 18.8 MiB (0%)
Language : German
Default : No
Forced : No

Menu
00:00:00.000 : :Businessmen
00:07:07.040 : :Surprise
00:14:09.120 : :The Murder
00:17:45.040 : :Under Suspicion
00:26:30.000 : :On the Run
00:30:56.040 : :Woman and Child
00:37:40.040 : :Helped
00:41:51.040 : :Lies
00:50:15.080 : :Attempted Bribery
00:55:24.040 : :The Mole
01:02:20.080 : :What\'s in the Bag?
01:08:10.040 : :The Video
01:16:54.040 : :Who is it, Louise?
01:24:40.000 : :In the Countryhouse
01:33:30.080 : :Weak Point
01:37:03.120 : :End Credits





1 个附件 售价 大小 下载 时间

Exit.2006.SWEDISH.1080p.BluRay.x264-HANDJOB.zip 0 金币 41.82K 231 次 1月前

#1楼
发帖时间:2020-10-25 22:47:54   |   回复数:0
游客组