travismk
一代宗师

[2010] [欧美] [剧情] [BD-1080P] 给朱丽叶的信/给茱丽叶的信 Letters.to.Juliet.2010.1080p.BluRay.x264.DTS-FGT 8.85GB

-->

帖子完整标题:给朱丽叶的信/给茱丽叶的信 Letters.to.Juliet.2010.1080p.BluRay.x264.DTS-FGT 8.85GB



◎译  名 给朱丽叶的信/给茱丽叶的信/致茱莉亚的信/茱丽叶爱情信箱(港)
◎片  名 Letters to Juliet
◎年  代 2010
◎产  地 美国
◎类  别 剧情 / 喜剧 / 爱情
◎语  言 英语
◎上映日期 2010-05-14
◎IMDb评分 6.5/10 from 91154 users
◎IMDb链接 https://www.imdb.com/title/tt0892318/
◎豆瓣评分 7.6/10 from 74350 users
◎豆瓣链接 https://movie.douban.com/subject/3346464/
◎片  长 106分钟(美国)
◎导  演 盖瑞·温尼克 Gary Winick
◎编  剧 约瑟·里韦拉 Jose Rivera / 蒂姆·沙利文 Tim Sullivan
◎主  演 阿曼达·塞弗里德 Amanda Seyfried
      盖尔·加西亚·贝纳尔 Gael García Bernal
      克里斯托弗·艾甘 Christopher Egan
      瓦妮莎·雷德格瑞夫 Vanessa Redgrave
      马西娅·德波尼斯 Marcia DeBonis
      弗兰科·内罗 Franco Nero
      阿什莉·利蕾 Ashley Lilley

◎标  签 爱情 | 美国 | 浪漫 | 温情 | 文艺 | 温馨 | 喜剧 | 2010

◎简  介

  苏菲·霍尔(阿曼达·塞弗里德 Amanda Seyf 饰)是《纽约客》的调查员。她的未婚夫维克多为开餐馆忙碌着。他们来意大利的维罗纳旅行。不过,维克多却醉心于品尝美食,对她疏于照顾。两人感情因此矛盾丛生。苏菲闲逛到许愿墙下,发现很多人给朱丽叶写信。她很好奇,尾随取信的 妇女,发现有四位女士扮演朱丽叶,回信解答情感问题。苏菲被感动了,决定加入她们的队伍。她读到一封50年前的来信:克莱尔·史密斯(瓦妮莎·雷德格瑞夫 Vanessa Redgrave 饰)讲述了一段留有遗憾的当年情。苏菲用心地回了信。没想到,某天,老人的孙子查理(克里斯·艾根 Chris Egan 饰)找上门来。她这才了解,老人读了她的信,决定重拾真爱。但查理觉得这很荒谬。在争执中,三个人共同踏上了寻爱之旅……

◎获奖情况

  第12届美国青少年选择奖 ?(2010)
  最佳爱情喜剧电影(提名)
  最佳爱情喜剧电影女演员(提名) 阿曼达·塞弗里德

Video
ID : 1
Format : AVC
Format/Info : Advanced Video Codec
Format profile : [email protected]
Format settings : CABAC / 5 Ref Frames
Format settings, CABAC : Yes
Format settings, Reference frames : 5 frames
Codec ID : V_MPEG4/ISO/AVC
Duration : 1 h 45 min
Bit rate : 10.5 Mb/s
Width : 1 920 pixels
Height : 816 pixels
Display aspect ratio : 2.35:1
Frame rate mode : Constant
Frame rate : 23.976 FPS
Color space : YUV
Chroma subsampling : 4:2:0
Bit depth : 8 bits
Scan type : Progressive
Bits/(Pixel*Frame) : 0.280
Stream size : 7.56 GiB (85%)
Writing library : x264 core 114 r1900 60ef1f8
Encoding settings : cabac=1 / ref=5 / deblock=1:-3:-3 / analyse=0x3:0x113 / me=umh / subme=10 / psy=1 / psy_rd=1.00:0.00 / mixed_ref=1 / me_range=16 / chroma_me=1 / trellis=2 / 8x8dct=1 / cqm=0 / deadzone=21,11 / fast_pskip=0 / chroma_qp_offset=-2 / threads=12 / sliced_threads=0 / nr=0 / decimate=1 / interlaced=0 / constrained_intra=0 / bframes=9 / b_pyramid=2 / b_adapt=2 / b_bias=0 / direct=3 / weightb=1 / open_gop=0 / weightp=2 / keyint=250 / keyint_min=23 / scenecut=40 / intra_refresh=0 / rc=2pass / mbtree=0 / bitrate=10500 / ratetol=1.0 / qcomp=0.60 / qpmin=0 / qpmax=69 / qpstep=4 / cplxblur=20.0 / qblur=0.5 / ip_ratio=1.40 / pb_ratio=1.30 / aq=1:0.90
Language : English
Default : No
Forced : No

Audio
ID : 2
Format : DTS
Format/Info : Digital Theater Systems
Codec ID : A_DTS
Duration : 1 h 45 min
Bit rate mode : Constant
Bit rate : 1 509 kb/s
Channel(s) : 6 channels
Channel layout : C L R Ls Rs LFE
Sampling rate : 48.0 kHz
Frame rate : 93.750 FPS (512 SPF)
Bit depth : 24 bits
Compression mode : Lossy
Stream size : 1.11 GiB (13%)
Language : English
Default : No
Forced : No





1 个附件 售价 大小 下载 时间

Letters.to.Juliet.2010.1080p.BluRay.x264.DTS-FGT.zip 0 金币 90.00K 259 次 1月前

#1楼
发帖时间:2020-10-25 09:34:09   |   回复数:0
游客组