travismk
一代宗师

[2010] [其他] [剧情] [BD-1080P] 极地奥德赛 Lapland.Odyssey.2010.REPACK.1080p.BluRay.x264-MCHD 6.55GB

-->

帖子完整标题:极地奥德赛 Lapland.Odyssey.2010.REPACK.1080p.BluRay.x264-MCHD 6.55GB



◎译  名 极地奥德赛/Lapland Odyssey
◎片  名 Napapiirin sankarit
◎年  代 2010
◎产  地 芬兰,冰岛,瑞典
◎类  别 剧情 / 爱情
◎语  言 芬兰语
◎上映日期 2010-10-15
◎IMDb评分 6.9/10 from 5698 users
◎IMDb链接 https://www.imdb.com/title/tt1454505/
◎豆瓣评分 7.3/10 from 701 users
◎豆瓣链接 https://movie.douban.com/subject/3793797/
◎片  长 96分钟
◎导  演 多姆·卡如库斯基 Dome Karukoski
◎编  剧 Pekko Pesonen
◎主  演 加斯帕·帕科农 Jasper P??kk?nen
      乔纳斯·马克科宁 Joonas Makkonen
      帕梅拉·托拉 Pamela Tola
      Miia Nuutila
      卡里·凯托宁 Kari Ketonen
      尤西·瓦塔宁 Jussi Vatanen

◎标  签 芬兰 | 喜剧 | 黑色幽默 | 北欧 | 芬兰电影 | 爱情 | 公路 | 2010

◎简  介

  杨尼(尤西·瓦坦恩 Jussi Vatanen 饰)是一个整天无所事事游手好闲的无业游民,靠着领取政府发放的失业救济金生活,一晃眼五年就这样过去了,杨尼的女友依娜丽(帕梅拉·托拉 Pamela Tola 饰)对男友如今的现状感到非常的不满。一天,依娜丽拜托杨尼去买一台信号转换器,但杨尼给忘记了,当他想起来的时候,商场已经关门了。依娜丽彻底的爆发了,她向男友发出了最后的通牒,如果不能在今天买到数字转换器,那么他们就分手。
  
  杨尼这才意识到事情的严重性,于是带着两个好友,杨尼踏上了寻找数字转换器的旅途,一路上,一行不靠谱的人遇到了各种各样的麻烦和意外。

Video
ID : 5
Format : AVC
Format/Info : Advanced Video Codec
Format profile : [email protected]
Format settings : CABAC / 5 Ref Frames
Format settings, CABAC : Yes
Format settings, Reference frames : 5 frames
Codec ID : V_MPEG4/ISO/AVC
Duration : 1 h 35 min
Bit rate : 9 019 kb/s
Width : 1 920 pixels
Height : 816 pixels
Display aspect ratio : 2.35:1
Frame rate mode : Constant
Frame rate : 23.976 (24000/1001/189150) FPS
Color space : YUV
Chroma subsampling : 4:2:0
Bit depth : 8 bits
Scan type : Progressive
Bits/(Pixel*Frame) : 0.240
Stream size : 5.91 GiB (90%)
Writing library : x264 core 115 r1947 b5a8ad7
Encoding settings : cabac=1 / ref=5 / deblock=1:0:0 / analyse=0x3:0x133 / me=umh / subme=7 / psy=1 / psy_rd=1.00:0.00 / mixed_ref=1 / me_range=16 / chroma_me=1 / trellis=1 / 8x8dct=1 / cqm=0 / deadzone=21,11 / fast_pskip=0 / chroma_qp_offset=-2 / threads=6 / sliced_threads=0 / nr=0 / decimate=1 / interlaced=0 / bluray_compat=0 / constrained_intra=0 / bframes=3 / b_pyramid=2 / b_adapt=2 / b_bias=0 / direct=3 / weightb=1 / open_gop=0 / weightp=2 / keyint=250 / keyint_min=23 / scenecut=40 / intra_refresh=0 / rc_lookahead=50 / rc=2pass / mbtree=1 / bitrate=9019 / ratetol=1.0 / qcomp=0.60 / qpmin=0 / qpmax=69 / qpstep=4 / cplxblur=20.0 / qblur=0.5 / ip_ratio=1.40 / aq=1:1.00
Language : English
Default : No
Forced : No

Audio
ID : 4
Format : DTS
Format/Info : Digital Theater Systems
Codec ID : A_DTS
Duration : 1 h 35 min
Bit rate mode : Constant
Bit rate : 768 kb/s
Channel(s) : 6 channels
Channel layout : C L R Ls Rs LFE
Sampling rate : 48.0 kHz
Frame rate : 93.750 FPS (512 SPF)
Bit depth : 24 bits
Compression mode : Lossy
Stream size : 527 MiB (8%)
Language : Finnish
Default : Yes
Forced : No

Text #1
ID : 1
Format : UTF-8
Codec ID : S_TEXT/UTF8
Codec ID/Info : UTF-8 Plain Text
Language : English
Default : Yes
Forced : No

Text #2
ID : 2
Format : UTF-8
Codec ID : S_TEXT/UTF8
Codec ID/Info : UTF-8 Plain Text
Language : Finnish
Default : No
Forced : No

Text #3
ID : 3
Format : UTF-8
Codec ID : S_TEXT/UTF8
Codec ID/Info : UTF-8 Plain Text
Language : Swedish
Default : No
Forced : No





1 个附件 售价 大小 下载 时间

Lapland.Odyssey.2010.REPACK.1080p.BluRay.x264-MCHD.zip 0 金币 132.49K 133 次 1月前

#1楼
发帖时间:2020-10-22 08:49:53   |   回复数:0
游客组