q3r3
武林盟主

[2010] [欧美] [剧情] [BD-1080P] 吐司/吐司:敬!美味人生 Toast.2010.1080p.BluRay.x264.DTS-FGT 4.24GB

-->

帖子完整标题:吐司/吐司:敬!美味人生 Toast.2010.1080p.BluRay.x264.DTS-FGT 4.24GB



◎译  名 吐司/吐司:敬!美味人生(台)/知味人生(港)
◎片  名 Toast
◎年  代 2010
◎产  地 英国
◎类  别 剧情 / 喜剧 / 同性 / 家庭
◎语  言 英语
◎上映日期 2010-12-30(英国)
◎IMDb评分 6.6/10 from 9103 users
◎IMDb链接 https://www.imdb.com/title/tt1658851/
◎豆瓣评分 7.5/10 from 33560 users
◎豆瓣链接 https://movie.douban.com/subject/4904026/
◎片  长 96分钟
◎导  演 S·J·克拉克森 S.J. Clarkson
◎编  剧 李·哈尔 Lee Hall / 奈杰尔·斯莱特 Nigel Slater
◎主  演 海伦娜·伯翰·卡特 Helena Bonham Carter
      弗莱迪·海默 Freddie Highmore
      马修·麦克诺提 Matthew McNulty
      奥斯卡·肯尼迪 Oscar Kennedy
      维多利亚·汉密尔顿 Victoria Hamilton
      科林·普罗克特 Colin Prockter
      肯·斯托特 Ken Stott
      弗雷齐尔·哈克尔 Frasier Huckle
      基亚·佩格 Kia Pegg
      瑞利·纽博德 Rielly Newbold
      罗杰·沃克 Roger Walker
      罗伯·贾维斯 Rob Jarvis
      本·奥德里基 Ben Aldridge
      Louise Mardenborough

◎标  签 美食 | 成长 | BBC | 家庭 | 传记 | 同志 | 剧情 | 2010

◎简  介

  根据英国国宝级美食作家Nigel Slater的获奖图书《吐司:少年饥饿记》改编而成,将童年记忆与他对美食的挚爱将出现在大荧屏上。
  
  少年Nigel Slater(奥斯卡·肯尼迪 Oscar Kennedy 饰)的母亲从来不是个好厨子,连简单的熬汤都不会,一家三口最常 吃的就是土司。当母亲哮喘发作去世以后,父亲只能以罐头食品取代。后来那个精于烹调的清洁工(海伦娜·邦汉·卡特 Helena Bonham Carter 饰)借此抓住了父亲的胃,变成了他的继母。日益增长的敌意让Nigel选择参加了家政班,学习制作各种甜食,来挑战这个厨艺精湛的继母。父亲每天都要忍受两人不断的吵闹,并被强迫吃掉两个相继制作的没完没了的甜点。二人间的战争终于在父亲的猝死后停止。17岁的Nigel收拾行囊,在厨房中找到工作,登入了超凡厨艺的辉煌殿堂。

Video
ID : 1
Format : AVC
Format/Info : Advanced Video Codec
Format profile : [email protected]
Format settings, CABAC : Yes
Format settings, ReFrames : 5 frames
Codec ID : V_MPEG4/ISO/AVC
Duration : 1h 32mn
Bit rate : 4 944 Kbps
Width : 1 920 pixels
Height : 816 pixels
Display aspect ratio : 2.35:1
Frame rate mode : Constant
Frame rate : 25.000 fps
Color space : YUV
Chroma subsampling : 4:2:0
Bit depth : 8 bits
Scan type : Progressive
Bits/(Pixel*Frame) : 0.126
Stream size : 3.18 GiB (75%)
Writing library : x264 core 119 r2106 07efeb4
Encoding settings : cabac=1 / ref=5 / deblock=1:0:0 / analyse=0x3:0x113 / me=umh / subme=7 / psy=1 / psy_rd=1.00:0.00 / mixed_ref=1 / me_range=16 / chroma_me=1 / trellis=1 / 8x8dct=1 / cqm=0 / deadzone=21,11 / fast_pskip=0 / chroma_qp_offset=-2 / threads=12 / sliced_threads=0 / nr=0 / decimate=1 / interlaced=0 / bluray_compat=0 / constrained_intra=0 / bframes=3 / b_pyramid=2 / b_adapt=1 / b_bias=0 / direct=1 / weightb=1 / open_gop=0 / weightp=2 / keyint=250 / keyint_min=25 / scenecut=40 / intra_refresh=0 / rc_lookahead=40 / rc=crf / mbtree=1 / crf=20.0 / qcomp=0.60 / qpmin=0 / qpmax=69 / qpstep=4 / ip_ratio=1.40 / aq=1:1.00
Language : English
Default : No
Forced : No

Audio
ID : 2
Format : DTS
Format/Info : Digital Theater Systems
Mode : 16
Format settings, Endianness : Big
Codec ID : A_DTS
Duration : 1h 32mn
Bit rate mode : Constant
Bit rate : 1 509 Kbps
Channel(s) : 6 channels
Channel positions : Front: L C R, Side: L R, LFE
Sampling rate : 48.0 KHz
Frame rate : 93.750 fps (512 spf)
Bit depth : 16 bits
Compression mode : Lossy
Stream size : 995 MiB (23%)
Language : English
Default : No
Forced : No





1 个附件 售价 大小 下载 时间

Toast.2010.1080p.BluRay.x264.DTS-FGT.zip 0 金币 86.27K 161 次 1月前

#1楼
发帖时间:2020-10-20 09:19:37   |   回复数:0
游客组