travismk
一代宗师

[2010] [其他] [剧情] [WEB-1080P] 驴皮记 The.Skin.Of.Sorrow.2010.FRENCH.1080p.AMZN.WEBRip.DDP2.0.x264-Candial 3.46GB

-->

帖子完整标题:驴皮记 The.Skin.Of.Sorrow.2010.FRENCH.1080p.AMZN.WEBRip.DDP2.0.x264-Candial 3.46GB



◎译  名 驴皮记
◎片  名 La peau de chagrin
◎年  代 2010
◎产  地 法国
◎类  别 剧情 / 奇幻
◎语  言 法语
◎上映日期 2010
◎IMDb评分 6.8/10 from 400 users
◎IMDb链接 https://www.imdb.com/title/tt1563665/
◎豆瓣评分 /10 from 0 users
◎豆瓣链接 https://movie.douban.com/subject/5159320/
◎片  长 97分钟
◎编  剧 巴尔扎克 Honoré de Balzac / 亚兰·贝利内 Alain Berliner
◎主  演 托马斯·库芒 Thomas Coumans
      米兰妮·让帕诺米 Mylène Jampano?
      让-皮埃尔·马里埃尔 Jean-Pierre Marielle
      路易多·德·朗克桑 Louis-Do de Lencquesaing
      克蕾蒙丝·西尔莱 Clémence Thioly
      朱利安·奥诺雷 Julien Honoré

◎标  签 巴尔扎克 | 法国 | 电影 | 奇幻 | 名著改编 | ThomasCoumans | 2010 | 米兰妮·让帕诺米

◎简  介

  巴黎深秋的一个清晨,22岁贵族出身的拉法埃尔·瓦朗坦在赌桌上输光了身上的最后一枚金币后,准备投进塞纳河自尽。但这位才华横溢的年轻侯爵并没有成功。他希望几个月前努力在写的一本论意志的书会给他带来名利双收,结果却仍是身无分文。当瓦朗坦经过一家古董店时,他想得到一把枪来结束自己的生命。然而,古怪的盲古董商却给了他一张印有天竺文字的驴皮。这张驴皮能为主人实现任何的愿望,但愿望一经实现,驴皮会立刻缩小,主人的寿命也随之缩短。瓦朗坦开始从掳获金钱的快感,去填壑无尽的欲望,另一方面象征他的生命的驴皮也逐步的缩小,将他带往死亡。当成为百万富翁的瓦朗坦终于有了自己心仪的女人时,这位把灵魂出卖给魔鬼的浪荡子猛然惊觉,死神已临近身旁,只能眼睁睁地看着自己的末日来临。

Video
ID : 1
Format : AVC
Format/Info : Advanced Video Codec
Format profile : [email protected]
Format settings : CABAC / 4 Ref Frames
Format settings, CABAC : Yes
Format settings, Reference frames : 4 frames
Codec ID : V_MPEG4/ISO/AVC
Duration : 1 h 36 min
Bit rate : 4 912 kb/s
Width : 1 920 pixels
Height : 1 040 pixels
Display aspect ratio : 1.85:1
Frame rate mode : Constant
Frame rate : 29.970 (30000/1001/189150) FPS
Color space : YUV
Chroma subsampling : 4:2:0
Bit depth : 8 bits
Scan type : Progressive
Bits/(Pixel*Frame) : 0.082
Stream size : 3.31 GiB (96%)
Language : English
Default : Yes
Forced : No
Color range : Limited
Color primaries : BT.709
Transfer characteristics : BT.709
Matrix coefficients : BT.709

Audio
ID : 2
Format : E-AC-3
Format/Info : Enhanced AC-3
Commercial name : Dolby Digital Plus
Codec ID : A_EAC3
Duration : 1 h 36 min
Bit rate mode : Constant
Bit rate : 224 kb/s
Channel(s) : 2 channels
Channel layout : L R
Sampling rate : 48.0 kHz
Frame rate : 31.250 FPS (1536 SPF)
Compression mode : Lossy
Stream size : 155 MiB (4%)
Language : French
Service kind : Complete Main
Default : Yes
Forced : No

Text
ID : 3
Format : UTF-8
Codec ID : S_TEXT/UTF8
Codec ID/Info : UTF-8 Plain Text
Duration : 1 h 30 min
Bit rate : 50 b/s
Count of elements : 981
Stream size : 34.0 KiB (0%)
Language : English
Default : Yes
Forced : No





1 个附件 售价 大小 下载 时间

The.Skin.Of.Sorrow.2010.FRENCH.1080p.AMZN.WEBRip.DDP2.0.x264-Candial.zip 0 金币 35.35K 224 次 1月前

#1楼
发帖时间:2020-10-19 19:29:32   |   回复数:0
游客组