squallzhao
武林盟主

[2010] [欧美] [剧情] [BD-1080P] 锁定 Locked.Down.2010.1080p.BluRay.x264.DTS-FGT 7.95GB

-->

帖子完整标题:锁定 Locked.Down.2010.1080p.BluRay.x264.DTS-FGT 7.95GB



◎译  名 锁定
◎片  名 Locked Down
◎年  代 2010
◎产  地 美国
◎类  别 剧情 / 动作
◎语  言 英语
◎上映日期 2010
◎IMDb评分 4.2/10 from 2460 users
◎IMDb链接 https://www.imdb.com/title/tt1597033/
◎豆瓣评分 4.5/10 from 146 users
◎豆瓣链接 https://movie.douban.com/subject/5156654/
◎主  演 凯特琳·勒柏 Kaitlyn Leeb
      托尼·希纳 Tony Schiena
      杰森·维什诺夫斯基 Jason Wishnowski
      凯文·费格斯 Kevin 'Kimbo Slice' Ferguson
      Rashad Evans
      Joe Doerksen
      Cheick Kongo
      Forrest Griffin
      德威尔·布朗 Dwier Brown
      阿诺德·庄 Arnold Chon
      白灵 Ling Bai
      维尼·琼斯 Vinnie Jones
      斯科特·约翰逊 Scott Johnson

◎标  签 犯罪 | 动作 | 美国电影 | 美国 | 2010 | ? | 维尼·琼斯 | 白灵

◎简  介

  Danny, a respected cop, is setup after an investigation goes wrong. While laying low in his new jail cell, Danny is forced to get involved in the inmates underground cage fighting circuit. With the help of Irving, a former mixed martial arts champion, Danny devises a scheme to bring justice and innocence to his family's name, if he can get out of the cage alive.

Video
ID : 1
Format : AVC
Format/Info : Advanced Video Codec
Format profile : [email protected]
Format settings, CABAC : Yes
Format settings, ReFrames : 4 frames
Codec ID : V_MPEG4/ISO/AVC
Duration : 1h 38mn
Bit rate : 10.0 Mbps
Width : 1 920 pixels
Height : 1 080 pixels
Display aspect ratio : 16:9
Frame rate mode : Constant
Frame rate : 23.976 fps
Color space : YUV
Chroma subsampling : 4:2:0
Bit depth : 8 bits
Scan type : Progressive
Bits/(Pixel*Frame) : 0.201
Stream size : 6.75 GiB (85%)
Writing library : x264 core 107 r1745+311 2317302
Encoding settings : cabac=1 / ref=4 / deblock=1:0:0 / analyse=0x3:0x133 / me=umh / subme=7 / psy=1 / fade_compensate=0.00 / psy_rd=1.00:0.00 / mixed_ref=1 / me_range=16 / chroma_me=1 / trellis=1 / 8x8dct=1 / cqm=0 / deadzone=21,11 / fast_pskip=0 / chroma_qp_offset=-2 / threads=12 / sliced_threads=0 / nr=0 / decimate=1 / interlaced=0 / constrained_intra=0 / fgo=0 / bframes=3 / b_pyramid=2 / b_adapt=1 / b_bias=0 / direct=1 / weightb=1 / open_gop=0 / weightp=2 / keyint=250 / keyint_min=23 / scenecut=40 / intra_refresh=0 / rc_lookahead=40 / rc=2pass / mbtree=1 / bitrate=10005 / ratetol=1.0 / qcomp=0.60 / qpmin=10 / qpmax=51 / qpstep=4 / cplxblur=20.0 / qblur=0.5 / ip_ratio=1.40 / aq=1:1.00
Language : English
Default : Yes
Forced : No

Audio
ID : 2
Format : DTS
Format/Info : Digital Theater Systems
Mode : 16
Format settings, Endianness : Big
Codec ID : A_DTS
Duration : 1h 38mn
Bit rate mode : Constant
Bit rate : 1 509 Kbps
Channel(s) : 6 channels
Channel positions : Front: L C R, Side: L R, LFE
Sampling rate : 48.0 KHz
Bit depth : 24 bits
Compression mode : Lossy
Stream size : 1.04 GiB (13%)
Language : English
Default : Yes
Forced : No

Text
ID : 3
Format : UTF-8
Codec ID : S_TEXT/UTF8
Codec ID/Info : UTF-8 Plain Text
Language : English
Default : No
Forced : No





1 个附件 售价 大小 下载 时间

Locked.Down.2010.1080p.BluRay.x264.DTS-FGT.zip 0 金币 80.92K 77 次 1月前

#1楼
发帖时间:2020-10-18 09:48:36   |   回复数:0
游客组