squallzhao
武林盟主

[2014] [欧美] [剧情] [BD-1080P] 庇护所/心灵庇护 Shelter.2014.1080p.BluRay.x264.DTS-FGT 4.53GB

-->

帖子完整标题:庇护所/心灵庇护 Shelter.2014.1080p.BluRay.x264.DTS-FGT 4.53GB



◎译  名 庇护所/心灵庇护(台)
◎片  名 Shelter
◎年  代 2014
◎产  地 美国
◎类  别 剧情
◎语  言 英语
◎上映日期 2014-09-12(多伦多电影节) / 2015-11-13(美国)
◎IMDb评分 6.5/10 from 4353 users
◎IMDb链接 https://www.imdb.com/title/tt3136112/
◎豆瓣评分 7.1/10 from 509 users
◎豆瓣链接 https://movie.douban.com/subject/25751818/
◎片  长 105分钟
◎导  演 保罗·贝坦尼 Paul Bettany
◎编  剧 保罗·贝坦尼 Paul Bettany
◎主  演 詹妮弗·康纳利 Jennifer Connelly
      安东尼·麦凯 Anthony Mackie
      艾米·哈格里夫斯 Amy Hargreaves
      乔丹·拉戈 Jordan Lage

◎标  签 詹妮弗·康纳利 | 美国 | 剧情 | JenniferConnelly | 美国电影 | PaulBettany | 2014 | 爱情

◎简  介

  保罗·贝坦尼导演处女作,影片由其妻子詹妮弗·康纳利和“猎鹰”安东尼·麦凯主演。汉娜和塔希尔来自两个不同的世界,从没想过彼此的相遇。当他们的生命意外交叠时,两个世界在纽约街头擦出火花。然而,在光鲜亮丽的纽约隐藏著这群无家可归、流连于街头的生活点滴。导演写给1970年代的纽约最真挚的情书,诉说著失去、爱、牺牲、救赎,最终得到希望的故事。

Video
ID : 1
Format : AVC
Format/Info : Advanced Video Codec
Format profile : [email protected]
Format settings, CABAC : Yes
Format settings, ReFrames : 4 frames
Codec ID : V_MPEG4/ISO/AVC
Duration : 1h 45mn
Bit rate : 4 500 Kbps
Width : 1 920 pixels
Height : 1 080 pixels
Display aspect ratio : 16:9
Frame rate mode : Constant
Frame rate : 23.976 (24000/1001) fps
Color space : YUV
Chroma subsampling : 4:2:0
Bit depth : 8 bits
Scan type : Progressive
Bits/(Pixel*Frame) : 0.091
Stream size : 3.33 GiB (73%)
Writing library : x264 core 148 r2705 3f5ed56
Encoding settings : cabac=1 / ref=4 / deblock=1:-3:-3 / analyse=0x3:0x133 / me=umh / subme=8 / psy=1 / psy_rd=1.00:0.15 / mixed_ref=1 / me_range=16 / chroma_me=1 / trellis=1 / 8x8dct=1 / cqm=0 / deadzone=21,11 / fast_pskip=0 / chroma_qp_offset=-3 / threads=12 / lookahead_threads=2 / sliced_threads=0 / nr=0 / decimate=1 / interlaced=0 / bluray_compat=0 / constrained_intra=0 / bframes=3 / b_pyramid=2 / b_adapt=2 / b_bias=0 / direct=3 / weightb=1 / open_gop=0 / weightp=2 / keyint=240 / keyint_min=23 / scenecut=40 / intra_refresh=0 / rc_lookahead=50 / rc=crf / mbtree=1 / crf=20.0 / qcomp=0.60 / qpmin=0 / qpmax=69 / qpstep=4 / ip_ratio=1.40 / aq=1:1.00
Language : English
Default : Yes
Forced : No

Audio
ID : 2
Format : DTS
Format/Info : Digital Theater Systems
Mode : 16
Format settings, Endianness : Big
Codec ID : A_DTS
Duration : 1h 45mn
Bit rate mode : Constant
Bit rate : 1 509 Kbps
Channel(s) : 6 channels
Channel positions : Front: L C R, Side: L R, LFE
Sampling rate : 48.0 KHz
Frame rate : 93.750 fps (512 spf)
Bit depth : 24 bits
Compression mode : Lossy
Stream size : 1.12 GiB (25%)
Language : English
Default : Yes
Forced : No

Text #1
ID : 3
Format : UTF-8
Codec ID : S_TEXT/UTF8
Codec ID/Info : UTF-8 Plain Text
Title : FORCED
Language : English
Default : Yes
Forced : Yes

Text #2
ID : 4
Format : UTF-8
Codec ID : S_TEXT/UTF8
Codec ID/Info : UTF-8 Plain Text
Language : English
Default : No
Forced : No

Menu
00:00:00.000 : en:00:00:00.000
00:12:47.642 : en:00:12:47.642
00:25:17.307 : en:00:25:17.307
00:39:50.346 : en:00:39:50.346
00:52:37.905 : en:00:52:37.905
01:04:39.626 : en:01:04:39.626
01:17:24.849 : en:01:17:24.849
01:30:46.274 : en:01:30:46.274





1 个附件 售价 大小 下载 时间

Shelter.2014.1080p.BluRay.x264.DTS-FGT.zip 0 金币 92.16K 175 次 1月前

#1楼
发帖时间:2020-10-18 09:37:03   |   回复数:0
游客组