squallzhao
武林盟主

[更 早] [其他] [剧情] [BD-1080P] 潜行者 Stalker.1979.1080p.BluRay.x264-USURY 12.03GB

-->

帖子完整标题:潜行者 Stalker.1979.1080p.BluRay.x264-USURY 12.03GB



◎译  名 潜行者/Stalker
◎片  名 Сталкер
◎年  代 1979
◎产  地 苏联
◎类  别 剧情 / 科幻 / 悬疑
◎语  言 俄语
◎上映日期 1979-05(苏联) / 1980-05-13(戛纳电影节)
◎IMDb评分 8.2/10 from 113379 users
◎IMDb链接 https://www.imdb.com/title/tt0079944/
◎豆瓣评分 8.8/10 from 16543 users
◎豆瓣链接 https://movie.douban.com/subject/1295656/
◎片  长 163 分钟
◎导  演 安德烈·塔可夫斯基 Andrei Tarkovsky
◎编  剧 安德烈·塔可夫斯基 Andrei Tarkovsky / 阿尔卡季·斯特鲁加茨基 Arkadi Strugatsky / 鲍里斯·斯特鲁加茨基 Boris Strugatsky
◎主  演 亚历山大·凯伊达诺夫斯基 Aleksandr Kaidanovsky
      阿丽萨·弗雷因德利赫 Alisa Freyndlikh
      安纳托利·索洛尼岑 Anatoliy Solonitsyn
      尼古拉·格林科 Nikolai Grinko
      纳塔利娅·阿布拉莫娃 Natalya Abramova
      费米·约尔诺 Faime Jurno
      E·科斯京 E. Kostin
      雷默·伦迪 Raymo Rendi

◎标  签 苏联 | 科幻 | 1979 | 哲学 | 悬疑 | 人性 | 奇幻 | 剧情

◎简  介

  清晨,空荡幽暗的卧室。潜行者(亚历山大·凯伊达诺夫斯基 Aleksandr Kajdanovsky饰)悄然无息地起身准备与另外两人会合前往一片恐怖复杂的地带。可妻子(阿丽萨·弗雷因德利赫 Alisa Frejndlikh饰)却极力哀求他不要冒险进入该地。而这位训练有素、 经验丰富的潜行者,即将穿越的是一片有着千变万化陷阱和圈套的地区“The Zone”。这块二十年前因陨星坠落而荒芜的恐怖地区,传说有一个名叫“The Room”的囚室,它能满足人们潜意识里最深层的意愿和欲望。潜行者与为寻求灵感的作家(安纳托里·索洛尼岑 Anatoli Solonitsyn饰)和为探明真相的科学家(尼古莱·格陵柯 Nikolai Grinko饰),踏上了这片变幻莫测的死亡之地。
  
  这部极具史诗片气质,探究人类灵魂本质的科幻电影《潜行者》,用诗意而极富隐喻的长镜头,挖掘着人类潜意识与外部世界的重重矛盾与深层意义。1957年,一场发生在苏联车里亚宾斯克附近名叫玛雅卡工厂的核灾难,深深触动了导演安德烈·塔科夫斯基,成为本部电影中的创作素材。影片也改变自小说《The Roadside Picnic》。本片荣获1980年第33届戛纳电影节天主教人道奖。

◎获奖情况

  第33届戛纳电影节 ?(1980)
  天主教人道精神奖-特别提及 安德烈·塔可夫斯基

Video
ID : 1
Format : AVC
Format/Info : Advanced Video Codec
Format profile : [email protected]
Format settings : CABAC / 4 Ref Frames
Format settings, CABAC : Yes
Format settings, Reference frames : 4 frames
Codec ID : V_MPEG4/ISO/AVC
Duration : 2 h 41 min
Bit rate : 10.2 Mb/s
Width : 1 440 pixels
Height : 1 080 pixels
Display aspect ratio : 4:3
Frame rate mode : Constant
Frame rate : 24.000 FPS
Color space : YUV
Chroma subsampling : 4:2:0
Bit depth : 8 bits
Scan type : Progressive
Bits/(Pixel*Frame) : 0.273
Stream size : 11.5 GiB (96%)
Writing library : x264 core 148 r2705 3f5ed56
Encoding settings : cabac=1 / ref=4 / deblock=1:0:0 / analyse=0x3:0x133 / me=umh / subme=9 / psy=1 / psy_rd=1.00:0.00 / mixed_ref=1 / me_range=16 / chroma_me=1 / trellis=1 / 8x8dct=1 / cqm=0 / deadzone=21,11 / fast_pskip=0 / chroma_qp_offset=-2 / threads=18 / lookahead_threads=1 / sliced_threads=0 / nr=0 / decimate=1 / interlaced=0 / bluray_compat=0 / constrained_intra=0 / bframes=3 / b_pyramid=2 / b_adapt=2 / b_bias=0 / direct=3 / weightb=1 / open_gop=0 / weightp=2 / keyint=250 / keyint_min=23 / scenecut=40 / intra_refresh=0 / rc_lookahead=50 / rc=2pass / mbtree=1 / bitrate=10182 / ratetol=1.0 / qcomp=0.60 / qpmin=0 / qpmax=69 / qpstep=4 / cplxblur=20.0 / qblur=0.5 / ip_ratio=1.40 / aq=1:1.00
Language : English
Default : Yes
Forced : No

Audio
ID : 2
Format : FLAC
Format/Info : Free Lossless Audio Codec
Codec ID : A_FLAC
Duration : 2 h 41 min
Bit rate mode : Variable
Bit rate : 473 kb/s
Channel(s) : 2 channels
Channel layout : L R
Sampling rate : 48.0 kHz
Frame rate : 11.719 FPS (4096 SPF)
Bit depth : 16 bits
Compression mode : Lossless
Stream size : 547 MiB (4%)
Writing library : libFLAC 1.2.1 (UTC 2007-09-17)
Language : Russian
Default : Yes
Forced : No

Text
ID : 3
Format : UTF-8
Codec ID : S_TEXT/UTF8
Codec ID/Info : UTF-8 Plain Text
Duration : 2 h 40 min
Bit rate : 32 b/s
Count of elements : 1006
Stream size : 37.8 KiB (0%)
Title : forced
Language : English
Default : Yes
Forced : Yes

Menu
00:00:00.000 : en:00:00:00.000
00:13:10.292 : en:00:13:10.292
00:25:08.958 : en:00:25:08.958
00:38:42.042 : en:00:38:42.042
00:48:47.417 : en:00:48:47.417
01:06:31.375 : en:01:06:31.375
01:17:40.750 : en:01:17:40.750
01:29:50.792 : en:01:29:50.792
01:40:22.208 : en:01:40:22.208
01:50:50.417 : en:01:50:50.417
02:02:06.125 : en:02:02:06.125
02:27:27.750 : en:02:27:27.750





1 个附件 售价 大小 下载 时间

Stalker.1979.1080p.BluRay.x264-USURY.zip 0 金币 61.57K 196 次 1月前

#1楼
发帖时间:2020-10-18 08:26:31   |   回复数:0
游客组