squallzhao
武林盟主

[2015] [其他] [剧情] [BD-1080P] 德军占领的卢浮宫 Francofonia.2015.LIMITED.1080p.BluRay.x264-USURY 6.56GB

-->

帖子完整标题:德军占领的卢浮宫 Francofonia.2015.LIMITED.1080p.BluRay.x264-USURY 6.56GB



◎译  名 德军占领的卢浮宫/Francofonia, le Louvre sous l'Occupation/Francofonia: Le Louvre Under German Occupation/占领下的卢浮宫/战火中的卢浮宫/攻占罗浮宫(台)/罗浮宫法国疯(港)
◎片  名 Francofonia
◎年  代 2015
◎产  地 法国,德国,荷兰
◎类  别 剧情 / 历史
◎语  言 俄语,法语,德语,英语
◎上映日期 2015-09-04(威尼斯电影节) / 2015-11-11(法国)
◎IMDb评分 6.7/10 from 2583 users
◎IMDb链接 https://www.imdb.com/title/tt3451720/
◎豆瓣评分 7.3/10 from 2719 users
◎豆瓣链接 https://movie.douban.com/subject/10491649/
◎片  长 88分钟
◎导  演 亚历山大·索科洛夫 Aleksandr Sokurov
◎编  剧 亚历山大·索科洛夫 Aleksandr Sokurov
◎主  演 路易多·德·朗克桑 Louis-Do de Lencquesaing
      亚历山大·索科洛夫 Aleksandr Sokurov
      本杰明·乌策拉特 Benjamin Utzerath
      文森特·内梅斯 Vincent Nemeth
      约翰娜·科塔兹·阿尔特斯 Johanna Korthals Altes
      安德烈·切尔帕洛维 Andrey Chelpanov
      让·克洛德·希尔 Jean-Claude Ca?r
      皮特·罗特兹克 Peter Lontzek
      弗朗索瓦·斯米斯尼 Francois Smesny

◎标  签 法国 | 俄罗斯 | 2015 | 德国 | 历史 | 战争 | 文艺 | 艺术

◎简  介

  俄罗斯电影大师亚历山大·索科洛夫自2011年凭借《浮士德》擒下威尼斯电影节金狮奖,之后就一直在筹备新作《占领下的卢浮宫》。此次索科洛夫将镜头对准巴黎卢浮宫,将时空拽回二战时期,探究纳粹占领下艺术与政治的内核关联。影片已入围第72届威尼斯电影节金狮奖,蛰伏四年,俄罗斯电影大师将再度携新作亮相水城,不知能否再夺大奖,但此次作为该片的世界首映,已足够吸引多方关注。
  
  索科洛夫一向热衷于拍摄历史与权力题材电影,其代表作“权利四部曲”中的三部分别涉及:关于希特勒的《莫洛赫》、描写列宁的《遗忘列宁》以及有关日本裕仁天皇的《太阳》。而作为艺术爱好者的索科洛夫对文化收藏宝库的博物馆也是情有独钟,早在其2002的名作《俄罗斯方舟》中就曾取景圣彼得堡冬宫博物馆。此次新作《占领下的卢浮宫》更是直接将镜头对准世界四大博物馆之首的法国卢浮宫,定将上演一场有关艺术、政治与文化的历史纠葛。

◎获奖情况

  第72届威尼斯电影节 ?(2015)
  主竞赛单元金狮奖(提名) 亚历山大·索科洛夫

Video
ID : 1
Format : AVC
Format/Info : Advanced Video Codec
Format profile : [email protected]
Format settings : CABAC / 4 Ref Frames
Format settings, CABAC : Yes
Format settings, Reference frames : 4 frames
Codec ID : V_MPEG4/ISO/AVC
Duration : 1 h 27 min
Bit rate : 9 182 kb/s
Width : 1 808 pixels
Height : 1 080 pixels
Display aspect ratio : 5:3
Frame rate mode : Constant
Frame rate : 23.976 FPS
Color space : YUV
Chroma subsampling : 4:2:0
Bit depth : 8 bits
Scan type : Progressive
Bits/(Pixel*Frame) : 0.196
Stream size : 5.63 GiB (86%)
Writing library : x264 core 148 r2692 64f4e24
Encoding settings : cabac=1 / ref=4 / deblock=1:0:0 / analyse=0x3:0x133 / me=umh / subme=9 / psy=1 / psy_rd=1.00:0.00 / mixed_ref=1 / me_range=16 / chroma_me=1 / trellis=1 / 8x8dct=1 / cqm=0 / deadzone=21,11 / fast_pskip=0 / chroma_qp_offset=-2 / threads=18 / lookahead_threads=1 / sliced_threads=0 / nr=0 / decimate=1 / interlaced=0 / bluray_compat=0 / constrained_intra=0 / bframes=3 / b_pyramid=2 / b_adapt=2 / b_bias=0 / direct=3 / weightb=1 / open_gop=0 / weightp=2 / keyint=250 / keyint_min=23 / scenecut=40 / intra_refresh=0 / rc_lookahead=50 / rc=2pass / mbtree=1 / bitrate=9182 / ratetol=1.0 / qcomp=0.60 / qpmin=0 / qpmax=69 / qpstep=4 / cplxblur=20.0 / qblur=0.5 / ip_ratio=1.40 / aq=1:1.00
Language : English
Default : Yes
Forced : No

Audio
ID : 2
Format : DTS
Format/Info : Digital Theater Systems
Codec ID : A_DTS
Duration : 1 h 27 min
Bit rate mode : Constant
Bit rate : 1 509 kb/s
Channel(s) : 6 channels
Channel layout : C L R Ls Rs LFE
Sampling rate : 48.0 kHz
Frame rate : 93.750 FPS (512 SPF)
Bit depth : 24 bits
Compression mode : Lossy
Stream size : 948 MiB (14%)
Language : French
Default : Yes
Forced : No

Text
ID : 3
Format : UTF-8
Codec ID : S_TEXT/UTF8
Codec ID/Info : UTF-8 Plain Text
Duration : 1 h 23 min
Bit rate : 58 b/s
Count of elements : 897
Stream size : 35.6 KiB (0%)
Title : forced
Language : English
Default : Yes
Forced : Yes

Menu
00:00:00.000 : en:00:00:00.000
00:09:19.184 : en:00:09:19.184
00:18:06.961 : en:00:18:06.961
00:26:43.977 : en:00:26:43.977
00:34:55.844 : en:00:34:55.844
00:44:58.571 : en:00:44:58.571
00:53:03.055 : en:00:53:03.055
01:00:47.811 : en:01:00:47.811
01:08:39.198 : en:01:08:39.198
01:16:17.656 : en:01:16:17.656
01:26:53.083 : en:01:26:53.083





1 个附件 售价 大小 下载 时间

Francofonia.2015.LIMITED.1080p.BluRay.x264-USURY.zip 0 金币 132.71K 273 次 1月前

#1楼
发帖时间:2020-10-18 08:17:33   |   回复数:0
游客组