travismk
一代宗师

[2006] [欧美] [剧情] [WEB-1080P] 地狱使者 Covert.One.The.Hades.Factor.2006.1080p.AMZN.WEBRip.DDP5.1.x264-ABM 16.56GB

-->

帖子完整标题:地狱使者 Covert.One.The.Hades.Factor.2006.1080p.AMZN.WEBRip.DDP5.1.x264-ABM 16.56GB



◎译  名 地狱使者/Covert One: The Hades Factor/灭世危机
◎片  名 The Hades factor
◎年  代 2006
◎产  地 美国
◎类  别 剧情 / 动作 / 悬疑 / 惊悚
◎语  言 英语
◎上映日期 2006-04-09
◎IMDb评分 5.8/10 from 1549 users
◎IMDb链接 https://www.imdb.com/title/tt0493327/
◎豆瓣评分 6.1/10 from 137 users
◎豆瓣链接 https://movie.douban.com/subject/2045865/
◎集  数 2
◎片  长 80分钟
◎导  演 米克·杰克逊 Mick Jackson
◎主  演 斯蒂芬·多尔夫 Stephen Dorff
      米拉·索维诺 Mira Sorvino
      布莱尔·安德伍德 Blair Underwood

◎标  签 美国 | 病毒 | 动作 | 美国电影 | 犯罪 | 惊悚 | 米克·杰克逊 | 2006

◎简  介

  美国出现神秘致命的感染性疾病,其传播速度之广让人恐惧,更有甚者,部分病毒被阿拉伯恐怖分子所掌握。史密斯与美国“隐蔽一号”特种部队奉命进行调查。正当稍有眉目时,他的未婚妻索菲医生被杀,迷雾重重,无限玄机,迷雾散开时,病毒竟然是美军自己制造出来的,后被内奸偷偷带出,为恐怖分子所用,美国人自食其果。

Video
ID : 1
Format : AVC
Format/Info : Advanced Video Codec
Format profile : [email protected]
Format settings : CABAC / 4 Ref Frames
Format settings, CABAC : Yes
Format settings, Reference frames : 4 frames
Codec ID : V_MPEG4/ISO/AVC
Duration : 2 h 45 min
Bit rate mode : Variable
Bit rate : 13.7 Mb/s
Maximum bit rate : 15.0 Mb/s
Width : 1 920 pixels
Height : 1 080 pixels
Display aspect ratio : 16:9
Frame rate mode : Constant
Frame rate : 23.976 (24000/1001/189150) FPS
Color space : YUV
Chroma subsampling : 4:2:0
Bit depth : 8 bits
Scan type : Progressive
Bits/(Pixel*Frame) : 0.276
Stream size : 15.8 GiB (96%)
Writing library : x264 core 148 r2623 d5b2374
Encoding settings : cabac=1 / ref=4 / deblock=1:-1:-1 / analyse=0x3:0x133 / me=umh / subme=9 / psy=1 / psy_rd=1.00:0.15 / mixed_ref=1 / me_range=24 / chroma_me=1 / trellis=2 / 8x8dct=1 / cqm=0 / deadzone=21,11 / fast_pskip=1 / chroma_qp_offset=-3 / threads=34 / lookahead_threads=5 / sliced_threads=0 / nr=150 / decimate=1 / interlaced=0 / bluray_compat=0 / constrained_intra=0 / bframes=8 / b_pyramid=2 / b_adapt=2 / b_bias=0 / direct=3 / weightb=1 / open_gop=0 / weightp=2 / keyint=120 / keyint_min=61 / scenecut=0 / intra_refresh=0 / rc_lookahead=120 / rc=crf / mbtree=1 / crf=18.0 / qcomp=0.60 / qpmin=0 / qpmax=69 / qpstep=4 / vbv_maxrate=15000 / vbv_bufsize=31250 / crf_max=0.0 / nal_hrd=vbr / filler=0 / ip_ratio=1.40 / aq=3:1.00
Default : Yes
Forced : No
Color range : Limited
Color primaries : BT.709
Transfer characteristics : BT.709
Matrix coefficients : BT.709

Audio
ID : 2
Format : E-AC-3
Format/Info : Enhanced AC-3
Commercial name : Dolby Digital Plus
Codec ID : A_EAC3
Duration : 2 h 45 min
Bit rate mode : Constant
Bit rate : 640 kb/s
Channel(s) : 6 channels
Channel layout : L R C LFE Ls Rs
Sampling rate : 48.0 kHz
Frame rate : 31.250 FPS (1536 SPF)
Compression mode : Lossy
Stream size : 756 MiB (4%)
Language : English
Service kind : Complete Main
Default : Yes
Forced : No

Text #1
ID : 3
Format : UTF-8
Codec ID : S_TEXT/UTF8
Codec ID/Info : UTF-8 Plain Text
Duration : 2 h 42 min
Bit rate : 48 b/s
Count of elements : 1916
Stream size : 57.9 KiB (0%)
Language : English
Default : No
Forced : No

Text #2
ID : 4
Format : UTF-8
Codec ID : S_TEXT/UTF8
Codec ID/Info : UTF-8 Plain Text
Duration : 2 h 42 min
Bit rate : 50 b/s
Count of elements : 2080
Stream size : 60.7 KiB (0%)
Title : SDH
Language : English
Default : No
Forced : No





1 个附件 售价 大小 下载 时间

Covert.One.The.Hades.Factor.2006.1080p.AMZN.WEBRip.DDP5.1.x264-ABM.zip 0 金币 83.50K 147 次 1月前

#1楼
发帖时间:2020-10-17 20:05:51   |   回复数:0
游客组