q3r3
武林盟主

[2010] [欧美] [剧情] [BD-1080P] 我的无形符号 An.Invisible.Sign.2010.1080p.BluRay.x264.DTS-FGT 8.40GB

-->

帖子完整标题:我的无形符号 An.Invisible.Sign.2010.1080p.BluRay.x264.DTS-FGT 8.40GB



◎译  名 我的无形符号/An Invisible Sign of My Own/我的神奇符号
◎片  名 An Invisible Sign
◎年  代 2010
◎产  地 美国
◎类  别 剧情
◎语  言 英语
◎上映日期 2010-10-07(汉普顿国际电影节) / 2011-05-06(美国)
◎IMDb评分 5.4/10 from 4002 users
◎IMDb链接 https://www.imdb.com/title/tt1212454/
◎豆瓣评分 6.8/10 from 5336 users
◎豆瓣链接 https://movie.douban.com/subject/3158438/
◎片  长 96分钟
◎主  演 杰西卡·阿尔芭 Jessica Alba
      J·K·西蒙斯 J.K. Simmons
      索尼娅·布拉加 Sonia Braga
      拜莉·麦迪逊 Bailee Madison
      克里斯·梅西纳 Chris Messina
      苏菲·内薇德 Sophie Nyweide
      伊米尔德-安吉尔·扬 Emerald-Angel Young
      康纳·卡罗尔 Conor Carroll
      亚美莉卡·费雷拉 America Ferrera
      丹尼尔·皮尔斯 Daniel Pearce
      约翰·希亚 John Shea
      阿什莉·阿特金森 Ashlie Atkinson
      麦肯婕·米龙 Mackenzie Milone
      布莱特·奥法特 Blythe Auffarth

◎标  签 美国 | jessicaalba | 美国电影 | 剧情 | 励志 | 青春 | 2010 | 电影

◎简  介

  美丽的女孩莫娜·格雷(杰茜卡·阿尔巴 Jessica Alba 饰)自幼于数字结缘,热爱数学的父亲(约翰·西亚 John Shea 饰)引领她进入一个丰富多彩的数字王国,直到某一天,父亲因奇怪的病症失却了往日的风采,而莫娜心灵世界的大门也渐渐关闭。母亲不愿这个脾气古怪的女儿待在家里,于是自顾自帮莫娜在当地的小学联系了一份数学老师的工作。虽然没有相关的证书和经验,但莫娜还是硬着头皮走进了教室,成为一群三年级小孩的老师。在此期间,她结识了孤独的小女孩丽莎(Sophie Nyweide 饰)以及乖张的自然教师本·史密斯(Chris Messsina 饰),莫娜的人生由此发生转变……
  
  本片为Marilyn Agrelo的故事片处女作,希根据艾梅·本德(Aimee Bender)的同名小说改编。

Video
ID : 1
Format : AVC
Format/Info : Advanced Video Codec
Format profile : [email protected]
Format settings, CABAC : Yes
Format settings, ReFrames : 4 frames
Codec ID : V_MPEG4/ISO/AVC
Duration : 1h 35mn
Bit rate : 10.8 Mbps
Nominal bit rate : 11.5 Mbps
Width : 1 916 pixels
Height : 800 pixels
Display aspect ratio : 2.40:1
Frame rate mode : Constant
Frame rate : 23.976 (24000/1001) fps
Color space : YUV
Chroma subsampling : 4:2:0
Bit depth : 8 bits
Scan type : Progressive
Bits/(Pixel*Frame) : 0.293
Stream size : 7.22 GiB (86%)
Title : An.Invisible.Sign.2010.1080p.BluRay.x264.DTS-FGT
Writing library : x264 core 148 r2694 3b70645
Encoding settings : cabac=1 / ref=4 / deblock=1:-2:-2 / analyse=0x3:0x113 / me=umh / subme=7 / psy=1 / psy_rd=1.00:0.15 / mixed_ref=1 / me_range=16 / chroma_me=1 / trellis=1 / 8x8dct=1 / cqm=0 / deadzone=21,11 / fast_pskip=1 / chroma_qp_offset=-3 / threads=40 / lookahead_threads=3 / sliced_threads=0 / nr=0 / decimate=1 / interlaced=0 / bluray_compat=0 / constrained_intra=0 / bframes=3 / b_pyramid=2 / b_adapt=2 / b_bias=0 / direct=3 / weightb=1 / open_gop=0 / weightp=2 / keyint=250 / keyint_min=25 / scenecut=40 / intra_refresh=0 / rc_lookahead=50 / rc=abr / mbtree=1 / bitrate=11500 / ratetol=1.0 / qcomp=0.60 / qpmin=0 / qpmax=69 / qpstep=4 / vbv_maxrate=31250 / vbv_bufsize=31250 / nal_hrd=none / filler=0 / ip_ratio=1.40 / aq=1:1.00
Language : English
Default : Yes
Forced : No

Audio
ID : 2
Format : DTS
Format/Info : Digital Theater Systems
Mode : 16
Format settings, Endianness : Big
Codec ID : A_DTS
Duration : 1h 35mn
Bit rate mode : Constant
Bit rate : 1 509 Kbps
Channel(s) : 2 channels
Channel positions : Front: L R
Sampling rate : 48.0 KHz
Frame rate : 93.750 fps (512 spf)
Bit depth : 16 bits
Compression mode : Lossy
Stream size : 1.01 GiB (12%)
Title : An.Invisible.Sign.2010.1080p.BluRay.x264.DTS-FGT
Language : English
Default : Yes
Forced : No

Menu
00:00:00.000 : en:(01)00:00:00:000
00:07:42.503 : en:(02)00:08:52:573
00:19:25.706 : en:(03)00:20:35:776
00:31:58.082 : en:(04)00:33:08:152
00:42:55.614 : en:(05)00:44:05:684
00:59:40.618 : en:(06)01:00:50:688
01:13:06.423 : en:(07)01:14:16:493
01:22:56.012 : en:(08)01:24:06:082





1 个附件 售价 大小 下载 时间

An.Invisible.Sign.2010.1080p.BluRay.x264.DTS-FGT.zip 0 金币 85.44K 147 次 1月前

#1楼
发帖时间:2020-10-10 10:07:33   |   回复数:0
游客组