q3r3
武林盟主

[2010] [其他] [剧情] [BD-1080P] 伦敦大道/伦敦林荫大道 London.Boulevard.2010.1080p.BluRay.X264-AMIABLE 7.65GB

-->

帖子完整标题:伦敦大道/伦敦林荫大道 London.Boulevard.2010.1080p.BluRay.X264-AMIABLE 7.65GB



◎译  名 伦敦大道/伦敦林荫大道/末路私情(港)
◎片  名 London Boulevard
◎年  代 2010
◎产  地 美国,英国
◎类  别 剧情 / 爱情 / 惊悚 / 犯罪
◎语  言 英语
◎上映日期 2010-11-26(美国)
◎IMDb评分 6.2/10 from 46145 users
◎IMDb链接 https://www.imdb.com/title/tt1213648/
◎豆瓣评分 6.5/10 from 15434 users
◎豆瓣链接 https://movie.douban.com/subject/3217878/
◎片  长 103分钟
◎导  演 威廉·莫纳汉 William Monahan
◎编  剧 威廉·莫纳汉 William Monahan / 肯·布鲁恩 Ken Bruen
◎主  演 科林·法瑞尔 Colin Farrell
      凯拉·奈特莉 Keira Knightley
      大卫·休里斯 David Thewlis
      安娜·弗莱尔 Anna Friel
      本·卓别林 Ben Chaplin
      雷·温斯顿 Ray Winstone
      埃迪·马森 Eddie Marsan
      桑吉夫·巴哈斯卡 Sanjeev Bhaskar
      斯蒂芬·格拉汉姆 Stephen Graham
      奥菲利亚·拉维邦德 Ophelia Lovibond
      杰米·坎贝尔·鲍尔 Jamie Campbell Bower
      维利贝·托皮奇 Velibor Topic
      李·博德曼 Lee Boardman
      艾伦·威廉姆斯 Alan Williams
      托尼·威 Tony Way
      蒂姆· 普莱斯特 Tim Plester
      杰克·亚伯拉罕 Jake Abraham
      尼克·巴特利特 Nick Bartlett
      马特·金 Matt King
      杰米·布莱克利 Jamie Blackley
      格雷戈里·弗雷曼 Gregory Foreman
      萨拉·奈尔斯 Sarah Niles
      约翰尼·科瓦内 Jonny Coyne
      海恩斯利·劳埃德·班纳特 Hainsley Lloyd Bennett
      大卫·道森 David Dawson
      卡特莉娜德登 Katrina Durden
      安德鲁·哈维尔 Andrew Havill
      埃瑞克·理查德 Eric Richard
      劳伦斯·理查德森 Laurence Richardson
      凯瑞·莎勒 Kerry Shale
      Simon Grover
      Giles Terera
      Gerald Home
      Ben Shockley

◎标  签 英国 | 犯罪 | KeiraKnightley | ColinFarrell | 剧情 | 英国电影 | 2010 | 美国

◎简  介

  本片根据Ken Bruen同名小说改编,由威廉姆?莫纳汉亲自改编剧本。
  
  米切尔(柯林·法瑞尔 Colin Farrell 饰)以前是个混迹在街头的痞子,蹲了几年牢被释放后决定重新做人,但却一直找不到工作。以前的那些朋友给他提供了一个替给放高利贷的金主收钱的工作,无可奈何的他只能接受。但不久后,他被一个不愿意抛头露面的女明星艾思林(凯拉·奈特莉 Keira Knightley)雇佣。艾思林不堪小报记者和狗仔队的困扰,雇佣了米切尔来给自己“清除麻烦”。当艾思林渐渐了解切米尔的为人,两人坠入了爱河。就在米切尔憧憬未来的时候,他的过去找上了门来。街头的那些违法犯罪的事情一直跟随着他。不幸的是,米切尔发现自己又莫名其妙地卷入了黑帮的矛盾中,这些矛盾直接威胁着他现在的生活,他能安然度过这些烦恼的事情并和艾思林生活在一起么?

Video
ID : 1
Format : AVC
Format/Info : Advanced Video Codec
Format profile : [email protected]
Format settings : CABAC / 4 Ref Frames
Format settings, CABAC : Yes
Format settings, Reference frames : 4 frames
Codec ID : V_MPEG4/ISO/AVC
Duration : 1 h 43 min
Bit rate : 9 125 kb/s
Width : 1 920 pixels
Height : 1 040 pixels
Display aspect ratio : 1.85:1
Frame rate mode : Constant
Frame rate : 23.976 (24000/1001/189150) FPS
Color space : YUV
Chroma subsampling : 4:2:0
Bit depth : 8 bits
Scan type : Progressive
Bits/(Pixel*Frame) : 0.191
Stream size : 6.41 GiB (84%)
Writing library : x264 core 114 r1913 5fd3dce
Encoding settings : cabac=1 / ref=4 / deblock=1:0:0 / analyse=0x3:0x113 / me=umh / subme=8 / psy=1 / psy_rd=1.00:0.00 / mixed_ref=1 / me_range=16 / chroma_me=1 / trellis=1 / 8x8dct=1 / cqm=0 / deadzone=21,11 / fast_pskip=1 / chroma_qp_offset=-2 / threads=12 / sliced_threads=0 / nr=0 / decimate=1 / interlaced=0 / constrained_intra=0 / bframes=3 / b_pyramid=2 / b_adapt=2 / b_bias=0 / direct=3 / weightb=1 / open_gop=0 / weightp=2 / keyint=240 / keyint_min=24 / scenecut=40 / intra_refresh=0 / rc_lookahead=50 / rc=2pass / mbtree=1 / bitrate=9125 / ratetol=1.0 / qcomp=0.60 / qpmin=0 / qpmax=69 / qpstep=4 / cplxblur=20.0 / qblur=0.5 / ip_ratio=1.40 / aq=1:1.00
Language : English
Default : Yes
Forced : No

Audio
ID : 2
Format : DTS
Format/Info : Digital Theater Systems
Codec ID : A_DTS
Duration : 1 h 43 min
Bit rate mode : Constant
Bit rate : 1 509 kb/s
Channel(s) : 6 channels
Channel layout : C L R Ls Rs LFE
Sampling rate : 48.0 kHz
Frame rate : 93.750 FPS (512 SPF)
Bit depth : 24 bits
Compression mode : Lossy
Stream size : 1.09 GiB (14%)
Language : English
Default : Yes
Forced : No

Text
ID : 3
Format : UTF-8
Codec ID : S_TEXT/UTF8
Codec ID/Info : UTF-8 Plain Text
Title : English
Language : English
Default : No
Forced : No

Menu
00:00:00.000 : en:00:00:00.000
00:09:36.493 : en:00:09:36.493
00:21:14.982 : en:00:21:14.982
00:30:59.649 : en:00:30:59.649
00:39:22.068 : en:00:39:22.068
00:49:02.898 : en:00:49:02.898
00:59:40.577 : en:00:59:40.577
01:09:29.040 : en:01:09:29.040
01:16:17.907 : en:01:16:17.907
01:24:33.944 : en:01:24:33.944
01:31:38.076 : en:01:31:38.076
01:36:46.926 : en:01:36:46.926





1 个附件 售价 大小 下载 时间

London.Boulevard.2010.1080p.BluRay.X264-AMIABLE.zip 0 金币 77.96K 441 次 1月前

#1楼
发帖时间:2020-09-30 11:21:02   |   回复数:0
游客组