travismk
一代宗师

[更 早] [欧美] [剧情] [WEB-1080P] 丰收月下之舞 Dancing.At.The.Harvest.Moon.2002.1080p.AMZN.WEBRip.DDP5.1.x264-TEPES 6.01

-->

帖子完整标题:丰收月下之舞 Dancing.At.The.Harvest.Moon.2002.1080p.AMZN.WEBRip.DDP5.1.x264-TEPES 6.01GB



◎译  名 丰收月下之舞
◎片  名 Dancing at the Harvest Moon
◎年  代 2002
◎产  地 美国
◎类  别 剧情 / 爱情
◎语  言 英语
◎上映日期 2002-10-20
◎IMDb评分 5.7/10 from 311 users
◎IMDb链接 https://www.imdb.com/title/tt0270908/
◎豆瓣评分 /10 from 0 users
◎豆瓣链接 https://movie.douban.com/subject/1875061/
◎片  长 84分钟
◎导  演 鲍比·罗斯 Bobby Roth
◎编  剧 彼得·纳尔逊 Peter Nelson
◎主  演 Josh Holland
      苏珊·安斯波 Susan Anspach
      杰奎琳·比塞特 Jacqueline Bisset
      埃里克·马比斯 Eric Mabius
      罗布·尼尔森 Rob Nilsson
      瓦莱丽·哈勃 Valerie Harper
      香农·戴 Shannon Day
      娜维·罗华 Navi Rawat
      比利·维拉 Billy Vera
      Cathy Lee Crosby
      卡门·阿尔根齐亚诺 Carmen Argenziano
      吉娜·加列戈 Gina Gallego
      布莱恩·雷科内尔 Brian Leckner
      Kathy McCarthy
      南·马丁 Nan Martin
      Chris Carver
      邦尼·鲁特 Bonnie Root
      Cari Shayne
      尤金·罗奇 Eugene Roche
      尼克?曼库索 Nick Mancuso

◎标  签 美国 | 电影 | 爱情 | CCTV6 | 丰收月下之舞 | 温情 | 查泰莱夫人之风华绝代 | 杰奎琳·比塞特

◎简  介

  玛吉在一所大学里教英国文学,体面的工作和幸福的家庭让她自豪不已。直到有一天,她亲眼看到了丈夫与情人厮混的情景,从此,她的生活发生了翻天覆地的变化。经历了三个月的心痛和繁忙的工作,暑假终于开始了,玛吉这次决定好好的放松一下。在一次整理旧物时,她无意间发现了自己和初恋情人帕特里克的照片。回想起三十年前甜蜜的恋爱,玛吉似乎找到了生活的希望,她决定重新回到那个海边的小镇,重温自己旧梦。
  
  
  
  小镇景色依旧,但是帕特里克却在多年前因心脏病去世了,玛吉难以接受这个事实。重游故地,当年的情景历历在目,当年玛吉曾经做过招待的月亮舞厅却倒闭了。那里有太多她和帕特里克的美好回忆,经过一番激烈的思想斗争,她决定无论如何要恢复月亮舞厅当年的热闹景象。离婚后的玛吉一贫如洗,根本没有资金盘下这家店面。经过多方游走,终于有一家银行同意为她提供贷款,玛吉觉得自己已经触碰到了梦想的边缘。在一次筹募资金大会上,玛吉无意中遇到了男孩乔。见到他第一面,玛吉就惊呆了,因为无论从外貌还是举止上来说他都和初恋情人帕特里克太像了。更让玛吉万万想不到的是,他居然就是帕特里克的儿子。
  
  
  
  乔主动提出担负舞厅的修葺工作,玛吉默许,但因为帕特里克的缘故,她一直不敢面对乔。玛吉的有意躲避让乔十分不解,更糟糕的是,他发现自己已经爱上了她。察觉到乔的爱意,玛吉矛盾不已,乔确实给她不一样的感觉。但他们年龄相差悬殊,况且他又是帕特里克的儿子,这一切都给这段爱情设置了障碍。玛吉的舞厅顺利开业了,乔向她表白自己的爱意,玛吉终于坦诚面对内心,接受了乔,但更大的麻烦还没有到来。
  
  
  
  乔决定利用比赛的机会,把玛吉介绍给妈妈,这段爱情遭到了她老人家的强烈反对,并出言伤害玛吉。痛苦的玛吉决定离开乔,并把月亮餐厅赠与了自己的好朋友。但有情人终成眷属,就在她要离开的时候,乔出现了,二人拥抱在一起。
  
  
  
  精彩视点:
  
  
  
  这是一部关于梦想与爱情的家庭片,温馨感人而又不失浪漫。影片制作精良,故事情节诙谐幽默,不落俗套,画面色彩亮丽,人物鲜活生动。片中动人心魄的爱情、朋友之间纯洁真挚的感情,相信定会让不少观众为之感动。影片一经上映就大受影迷欢迎,不但取得了不错的票房成绩,还一举荣获了玻璃熊奖等多项国际权威奖项,绝对可以称得上是一部不可多得的家庭故事大片。

Video
ID : 1
Format : AVC
Format/Info : Advanced Video Codec
Format profile : [email protected]
Format settings : CABAC / 4 Ref Frames
Format settings, CABAC : Yes
Format settings, Reference frames : 4 frames
Codec ID : V_MPEG4/ISO/AVC
Duration : 1 h 26 min
Bit rate mode : Constant
Bit rate : 9 349 kb/s
Nominal bit rate : 10 000 kb/s
Width : 1 920 pixels
Height : 1 080 pixels
Display aspect ratio : 16:9
Frame rate mode : Constant
Frame rate : 23.976 (24000/1001/189150) FPS
Color space : YUV
Chroma subsampling : 4:2:0
Bit depth : 8 bits
Scan type : Progressive
Bits/(Pixel*Frame) : 0.188
Stream size : 5.62 GiB (94%)
Default : Yes
Forced : No
Color range : Limited
Color primaries : BT.709
Transfer characteristics : BT.709
Matrix coefficients : BT.709

Audio
ID : 2
Format : E-AC-3
Format/Info : Enhanced AC-3
Commercial name : Dolby Digital Plus
Codec ID : A_EAC3
Duration : 1 h 26 min
Bit rate mode : Constant
Bit rate : 640 kb/s
Channel(s) : 6 channels
Channel layout : L R C LFE Ls Rs
Sampling rate : 48.0 kHz
Frame rate : 31.250 FPS (1536 SPF)
Compression mode : Lossy
Stream size : 396 MiB (6%)
Language : English
Service kind : Complete Main
Default : Yes
Forced : No

Text
ID : 3
Format : UTF-8
Codec ID : S_TEXT/UTF8
Codec ID/Info : UTF-8 Plain Text
Duration : 1 h 25 min
Bit rate : 66 b/s
Count of elements : 1740
Stream size : 41.6 KiB (0%)
Language : English
Default : Yes
Forced : No





1 个附件 售价 大小 下载 时间

Dancing.At.The.Harvest.Moon.2002.1080p.AMZN.WEBRip.DDP5.1.x264-TEPES.zip 0 金币 31.54K 168 次 25天前

#1楼
发帖时间:2020-09-27 17:40:03   |   回复数:0
游客组