travismk
一代宗师

[2014] [欧美] [剧情] [WEB-1080P] 爱在烟花绽放时 When.Sparks.Fly.2014.1080p.AMZN.WEBRip.DDP5.1.x264-TEPES 4.36GB

-->

帖子完整标题:爱在烟花绽放时 When.Sparks.Fly.2014.1080p.AMZN.WEBRip.DDP5.1.x264-TEPES 4.36GB



◎译  名 爱在烟花绽放时
◎片  名 when sparks fly (TV)
◎年  代 2014
◎产  地 美国
◎类  别 剧情 / 爱情
◎上映日期 2014-06-28(美国)
◎IMDb评分 5.2/10 from 1111 users
◎IMDb链接 https://www.imdb.com/title/tt3512900/
◎豆瓣评分 /10 from 0 users
◎豆瓣链接 https://movie.douban.com/subject/25943460/
◎片  长 86分钟
◎导  演 加里·耶茨 Gary Yates
◎编  剧 Carol Starr Schneider
◎主  演 梅根·马克尔 Meghan Markle
      洛奇林·莫罗 Lochlyn Munro

◎标  签 Hallmark

◎简  介

  Young journalist Amy Peterson (Markle) is not as happy with her big city life as she'd hoped, and it's starting to show in her work. She's also not thrilled with her current boyfriend, Phil (Munro), a GQ-handsome businessman who doesn't quite click with her. When circulation at the Chicago Post starts to wane, Amy's editor sends her back to her hometown to write an article about growing up in her parents' (MacKechnie and Samuda) fireworks business. With the Fourth of July at hand, this human-interest story will be just what the Chicago Post needs. Amy arrives home to write her article, but is quickly derailed by her best friend, Sammie (Pesic), who enlists Amy to be the official planner of her upcoming Fourth of July wedding to - of all people - Amy's ex-boyfriend, Hank (Jacot). As Amy struggles to cater to Sammie's wedding demands and work on her newspaper assignment, her feelings for Hank start to resurface. Is Hank feeling the same way? Will their old flame rekindle as the time ...

Video
ID : 1
Format : AVC
Format/Info : Advanced Video Codec
Format profile : [email protected]
Format settings : CABAC / 4 Ref Frames
Format settings, CABAC : Yes
Format settings, Reference frames : 4 frames
Codec ID : V_MPEG4/ISO/AVC
Duration : 1 h 26 min
Bit rate mode : Variable
Bit rate : 6 403 kb/s
Maximum bit rate : 15.0 Mb/s
Width : 1 920 pixels
Height : 1 080 pixels
Display aspect ratio : 16:9
Frame rate mode : Constant
Frame rate : 23.976 (24000/1001/189150) FPS
Color space : YUV
Chroma subsampling : 4:2:0
Bit depth : 8 bits
Scan type : Progressive
Bits/(Pixel*Frame) : 0.129
Stream size : 3.89 GiB (89%)
Language : English
Default : Yes
Forced : No
Color range : Limited
Color primaries : BT.709
Transfer characteristics : BT.709
Matrix coefficients : BT.709

Audio
ID : 2
Format : E-AC-3
Format/Info : Enhanced AC-3
Commercial name : Dolby Digital Plus
Codec ID : A_EAC3
Duration : 1 h 26 min
Bit rate mode : Constant
Bit rate : 640 kb/s
Channel(s) : 6 channels
Channel layout : L R C LFE Ls Rs
Sampling rate : 48.0 kHz
Frame rate : 31.250 FPS (1536 SPF)
Compression mode : Lossy
Stream size : 398 MiB (9%)
Language : English
Service kind : Complete Main
Default : Yes
Forced : No

Text
ID : 3
Format : UTF-8
Codec ID : S_TEXT/UTF8
Codec ID/Info : UTF-8 Plain Text
Language : English
Default : No
Forced : No





1 个附件 售价 大小 下载 时间

When.Sparks.Fly.2014.1080p.AMZN.WEBRip.DDP5.1.x264-TEPES.zip 0 金币 44.29K 140 次 25天前

#1楼
发帖时间:2020-09-27 17:30:10   |   回复数:0
游客组