travismk
一代宗师

[2019] [其他] [剧情] [BD-Remux] 托马索 Tommaso.2019.1080p.BluRay.REMUX.AVC.DTS-HD.MA.5.1-FGT 33.05GB

-->

帖子完整标题:托马索 Tommaso.2019.1080p.BluRay.REMUX.AVC.DTS-HD.MA.5.1-FGT 33.05GB



◎译  名 托马索
◎片  名 Tommaso
◎年  代 2019
◎产  地 意大利,英国,美国,希腊
◎类  别 剧情
◎语  言 英语,意大利语,俄语
◎上映日期 2019-05-20(戛纳电影节) / 2020-06-05(美国)
◎IMDb评分 6/10 from 601 users
◎IMDb链接 https://www.imdb.com/title/tt9482230/
◎豆瓣评分 6.9/10 from 291 users
◎豆瓣链接 https://movie.douban.com/subject/33402218/
◎片  长 115分钟
◎导  演 阿贝尔·费拉拉 Abel Ferrara
◎编  剧 阿贝尔·费拉拉 Abel Ferrara
◎主  演 威廉·达福 Willem Dafoe

◎标  签 意大利 | 2019 | 阿贝尔·费拉拉 | 威廉·达福 | 剧情 | 戛纳电影节 | 美国 | 意大利电影

◎简  介

  影片由阿贝尔·费拉拉自编自导,该片曾入围2019年戛纳电影节参展作品。故事讲述了一位美国艺术家和他年轻的欧洲妻子尼基以及他们3岁的女儿迪迪生活在罗马的故事。

Video
ID : 1
ID in the original source medium : 4113 (0x1011)
Format : AVC
Format/Info : Advanced Video Codec
Format profile : [email protected]
Format settings : CABAC / 4 Ref Frames
Format settings, CABAC : Yes
Format settings, Reference frames : 4 frames
Codec ID : V_MPEG4/ISO/AVC
Duration : 1 h 57 min
Bit rate mode : Variable
Bit rate : 34.8 Mb/s
Maximum bit rate : 38.0 Mb/s
Width : 1 920 pixels
Height : 1 080 pixels
Display aspect ratio : 16:9
Frame rate mode : Constant
Frame rate : 23.976 (24000/1001/189150) FPS
Color space : YUV
Chroma subsampling : 4:2:0
Bit depth : 8 bits
Scan type : Progressive
Bits/(Pixel*Frame) : 0.700
Stream size : 28.6 GiB (87%)
Title : Tommaso.2019.1080p.BluRay.REMUX.AVC.DTS-HD.MA.5.1-FGT
Language : English
Default : No
Forced : No
Original source medium : Blu-ray

Audio #1
ID : 2
ID in the original source medium : 4352 (0x1100)
Format : DTS XLL
Format/Info : Digital Theater Systems
Commercial name : DTS-HD Master Audio
Codec ID : A_DTS
Duration : 1 h 57 min
Bit rate mode : Variable
Bit rate : 3 333 kb/s
Channel(s) : 6 channels
Channel layout : C L R Ls Rs LFE
Sampling rate : 48.0 kHz
Frame rate : 93.750 FPS (512 SPF)
Bit depth : 24 bits
Compression mode : Lossless
Stream size : 2.74 GiB (8%)
Title : Tommaso.2019.1080p.BluRay.REMUX.AVC.DTS-HD.MA.5.1-FGT
Language : English
Default : Yes
Forced : No
Original source medium : Blu-ray

Audio #2
ID : 3
ID in the original source medium : 4353 (0x1101)
Format : DTS XLL
Format/Info : Digital Theater Systems
Commercial name : DTS-HD Master Audio
Codec ID : A_DTS
Duration : 1 h 57 min
Bit rate mode : Variable
Bit rate : 2 023 kb/s
Channel(s) : 2 channels
Channel layout : L R
Sampling rate : 48.0 kHz
Frame rate : 93.750 FPS (512 SPF)
Bit depth : 24 bits
Compression mode : Lossless
Stream size : 1.66 GiB (5%)
Title : Tommaso.2019.1080p.BluRay.REMUX.AVC.DTS-HD.MA.5.1-FGT
Language : English
Default : No
Forced : No
Original source medium : Blu-ray

Text #1
ID : 4
Format : UTF-8
Codec ID : S_TEXT/UTF8
Codec ID/Info : UTF-8 Plain Text
Duration : 1 h 43 min
Bit rate : 3 b/s
Count of elements : 112
Stream size : 2.96 KiB (0%)
Title : English-FORCED-SRT
Language : English
Default : Yes
Forced : Yes

Text #2
ID : 5
Format : UTF-8
Codec ID : S_TEXT/UTF8
Codec ID/Info : UTF-8 Plain Text
Duration : 1 h 51 min
Bit rate : 42 b/s
Count of elements : 1159
Stream size : 35.0 KiB (0%)
Title : English-SRT
Language : English
Default : No
Forced : No

Text #3
ID : 6
ID in the original source medium : 4608 (0x1200)
Format : PGS
Muxing mode : zlib
Codec ID : S_HDMV/PGS
Codec ID/Info : Picture based subtitle format used on BDs/HD-DVDs
Duration : 1 h 43 min
Bit rate : 4 732 b/s
Count of elements : 228
Stream size : 3.51 MiB (0%)
Title : English-PGS
Language : English
Default : No
Forced : No
Original source medium : Blu-ray

Text #4
ID : 7
ID in the original source medium : 4609 (0x1201)
Format : PGS
Muxing mode : zlib
Codec ID : S_HDMV/PGS
Codec ID/Info : Picture based subtitle format used on BDs/HD-DVDs
Duration : 1 h 53 min
Bit rate : 57.8 kb/s
Count of elements : 3000
Stream size : 46.9 MiB (0%)
Title : English-FORCED-PGS
Language : English
Default : No
Forced : No
Original source medium : Blu-ray

Menu
00:00:00.000 : en:Chapter 01
00:10:49.440 : en:Chapter 02
00:23:05.717 : en:Chapter 03
00:35:47.728 : en:Chapter 04
00:47:22.798 : en:Chapter 05
01:00:25.121 : en:Chapter 06
01:10:23.302 : en:Chapter 07
01:24:28.229 : en:Chapter 08
01:35:14.166 : en:Chapter 09
01:46:51.071 : en:Chapter 10
01:57:41.387 : en:Chapter 11





1 个附件 售价 大小 下载 时间

Tommaso.2019.1080p.BluRay.REMUX.AVC.DTS-HD.MA.5.1-FGT.zip 0 金币 84.08K 203 次 25天前

#1楼
发帖时间:2020-09-27 16:45:15   |   回复数:0
游客组