q3r3
武林盟主

[更 早] [其他] [剧情] [BD-1080P] 古惑狗天师/天堂狗历险记 All.Dogs.Go.to.Heaven.1989.1080p.BluRay.x264.DTS-FGT 13.49GB

-->

帖子完整标题:古惑狗天师/天堂狗历险记 All.Dogs.Go.to.Heaven.1989.1080p.BluRay.x264.DTS-FGT 13.49GB



◎译  名 古惑狗天师/天堂狗历险记/快乐神仙狗/所有狗上天堂/所有的狗上天堂
◎片  名 All Dogs Go to Heaven
◎年  代 1989
◎产  地 爱尔兰,英国,美国
◎类  别 剧情 / 喜剧 / 动作 / 动画 / 歌舞 / 家庭 / 奇幻 / 冒险
◎语  言 英语
◎上映日期 1989-11-17
◎IMDb评分 6.8/10 from 35555 users
◎IMDb链接 https://www.imdb.com/title/tt0096787/
◎豆瓣评分 8.0/10 from 114 users
◎豆瓣链接 https://movie.douban.com/subject/1295988/
◎片  长 89 分钟
◎导  演 唐·布鲁斯 Don Bluth / 加里·戈德曼 Gary Goldman
◎编  剧 唐·布鲁斯 Don Bluth / 戴维·N·韦斯 David N. Weiss / Linda Miller / Larry Leker
◎主  演 伯特·雷诺兹 Burt Reynolds
      多姆·德路易斯 Dom DeLuise
      朱迪丝·芭西 Judith Barsi
      戴维·N·韦斯 David N. Weiss
      约翰·K·凯尔 John K. Carr

◎标  签 动画 | 美国 | 英国 | 人与动物 | 英国动画 | 喜剧 | 狗 | 电影

◎简  介

  When a casino owning dog named Charlie is murdered by his rival Carface, he finds himself in Heaven basically by default since all dogs go to heaven. However, since he wants to get back at his killer, he cons his way back to the living with the warning that doing that damns him to Hell. Once back, he teams with his old partner, Itchy to prep his retaliation. He also stumbles on to an orphan girl who can talk to the animals, thus allowing him to get the inside info on the races to ensure his wins

Video
ID : 1
Format : AVC
Format/Info : Advanced Video Codec
Format profile : [email protected]
Format settings : CABAC / 4 Ref Frames
Format settings, CABAC : Yes
Format settings, Reference frames : 4 frames
Codec ID : V_MPEG4/ISO/AVC
Duration : 1 h 24 min
Bit rate : 20.9 Mb/s
Width : 1 920 pixels
Height : 1 040 pixels
Display aspect ratio : 1.85:1
Frame rate mode : Constant
Frame rate : 23.976 (24000/1001/189150) FPS
Color space : YUV
Chroma subsampling : 4:2:0
Bit depth : 8 bits
Scan type : Progressive
Bits/(Pixel*Frame) : 0.436
Stream size : 12.3 GiB (91%)
Writing library : x264 core 124 r2197kMod 69a0443
Encoding settings : cabac=1 / ref=4 / deblock=1:-3:-3 / analyse=0x3:0x113 / me=umh / subme=11 / psy=1 / fade_compensate=0.00 / psy_rd=1.00:0.00 / mixed_ref=1 / me_range=48 / chroma_me=1 / trellis=2 / 8x8dct=1 / cqm=0 / deadzone=21,11 / fast_pskip=1 / chroma_qp_offset=-2 / threads=12 / sliced_threads=0 / nr=0 / decimate=1 / interlaced=0 / bluray_compat=0 / constrained_intra=0 / bframes=8 / b_pyramid=2 / b_adapt=2 / b_bias=0 / direct=1 / weightb=1 / open_gop=0 / weightp=2 / keyint=250 / keyint_min=23 / scenecut=40 / intra_refresh=0 / rc_lookahead=60 / rc=crf / mbtree=1 / crf=21.0000 / qcomp=0.80 / qpmin=0 / qpmax=69 / qpstep=4 / vbv_maxrate=50000 / vbv_bufsize=62500 / crf_max=0.0 / nal_hrd=none / ip_ratio=1.10 / aq=2:0.65
Language : English
Default : Yes
Forced : No
Color range : Limited
Matrix coefficients : BT.709

Audio
ID : 2
Format : DTS
Format/Info : Digital Theater Systems
Codec ID : A_DTS
Duration : 1 h 24 min
Bit rate mode : Constant
Bit rate : 1 509 kb/s
Channel(s) : 2 channels
Channel layout : Lt Rt
Sampling rate : 48.0 kHz
Frame rate : 93.750 FPS (512 SPF)
Bit depth : 24 bits
Compression mode : Lossy
Stream size : 913 MiB (7%)
Language : English
Default : Yes
Forced : No

Text
ID : 3
Format : ASS
Codec ID : S_TEXT/ASS
Codec ID/Info : Advanced Sub Station Alpha
Compression mode : Lossless
Language : English
Default : No
Forced : No

Menu
00:00:00.000 : en:Logos/"Rat Race"
00:05:11.228 : en:You Can't Keep a Good Dog Down
00:08:32.846 : en:Carface & Charlie
00:14:18.191 : en:Let Me Be Surprised
00:19:32.296 : en:"I'm Not a Ghost!"
00:23:40.586 : en:Saving Anne-Marie
00:28:51.605 : en:Bedtime Story
00:37:51.978 : en:"Grand Chawhee to Win"
00:40:42.649 : en:"Jackpot!"
00:43:56.551 : en:What's Mine Is Yours
00:49:24.753 : en:Soon You'll Come Home
00:54:36.315 : en:"Don't Worry About Me"
00:57:36.119 : en:Let's Make Music Together
01:03:05.532 : en:"Bad Dog!"
01:08:47.623 : en:To the Rescue
01:14:00.353 : en:Heavenly Dog/Credits





1 个附件 售价 大小 下载 时间

All.Dogs.Go.to.Heaven.1989.1080p.BluRay.x264.DTS-FGT.zip 0 金币 35.36K 238 次 25天前

#1楼
发帖时间:2020-09-27 11:50:45   |   回复数:0
游客组