q3r3
武林盟主

[更 早] [欧美] [剧情] [BD-1080P] 两杆大烟枪/两只老烟枪 Lock.Stock.and.Two.Smoking.Barrels.1998.1080p.BluRay.x264.DTS-FGT 10

-->

帖子完整标题:两杆大烟枪/两只老烟枪 Lock.Stock.and.Two.Smoking.Barrels.1998.1080p.BluRay.x264.DTS-FGT 10.50GB



◎译  名 两杆大烟枪/两只老烟枪/两杆老烟枪/两根枪管(台)/够姜四小强(港)/魔高一丈
◎片  名 Lock, Stock and Two Smoking Barrels
◎年  代 1998
◎产  地 英国
◎类  别 剧情 / 喜剧 / 犯罪
◎语  言 英语
◎上映日期 1998-08-28(英国)
◎IMDb评分 8.2/10 from 526068 users
◎IMDb链接 https://www.imdb.com/title/tt0120735/
◎豆瓣评分 9.1/10 from 458774 users
◎豆瓣链接 https://movie.douban.com/subject/1293350/
◎片  长 107分钟
◎导  演 盖·里奇 Guy Ritchie
◎编  剧 盖·里奇 Guy Ritchie
◎主  演 杰森·弗莱明 Jason Flemyng
      德克斯特·弗莱彻 Dexter Fletcher
      尼克·莫兰 Nick Moran
      杰森·斯坦森 Jason Statham
      斯蒂文·麦金托什 Steven Mackintosh
      斯汀 Sting
      维尼·琼斯 Vinnie Jones
      安德鲁·蒂曼 Andrew Tiernan
      维克多·麦奎尔 Victor McGuire
      丹尼·约翰-儒勒 Danny John-Jules
      马修·沃恩 Matthew Vaughn
      弗兰克·哈珀 Frank Harper
      罗尼·福克斯 Ronnie Fox
      薇拉·黛 Vera Day
      史蒂夫·斯威尼 Steve Sweeney
      阿兰·福德 Alan Ford
      罗伯·布莱顿 Rob Brydon
      瓦斯·布莱克伍德 Vas Blackwood
      Lenny McLean
      尼古拉斯·罗尔 Nicholas Rowe
      P.H.莫里亚蒂 P.H. Moriarty
      斯蒂芬·马库斯 Stephen Marcus
      杰克·亚伯拉罕 Jake Abraham

◎标  签 黑色幽默 | 英国 | 喜剧 | 犯罪 | 黑帮 | 剧情 | 经典 | 黑色

◎简  介

  艾迪(尼克·莫伦)思维敏捷,是个玩牌高手。在三个好友的支持下,艾迪携巨资参加了黑社会的高额赌局,不想落入圈套,欠下50万的赌债。为了还清赌债,艾迪和朋友们绞尽脑汁,最终算计到一群毒贩身上,并为打劫购买了两杆老式烟枪。
  
  不想这群不安分的毒贩,正惦念着他们毒品供应商的钱,并在同一天实施了打劫。在毒贩们费尽周折,把毒品供应商熨的整整齐齐的钱款拿到手后,艾迪他们幸运的坐享其成。可是他们不知道,这看似简单的抢劫案背后,更有厉害的角色参与其中。他们手里的两杆破烟枪也隐藏着不少故事。
  
  在无知与莽撞中置身漩涡的他们能侥幸脱身么?笑料迭出的偶发事件里,穿插着小人物与大人物的辛酸幽默。

◎获奖情况

  第11届东京国际电影节 ?(1998)
  主竞赛单元最佳影片(提名) 盖·里奇
  主竞赛单元最佳导演 盖·里奇

Video
ID : 1
Format : AVC
Format/Info : Advanced Video Codec
Format profile : [email protected]
Format settings, CABAC : Yes
Format settings, ReFrames : 4 frames
Codec ID : V_MPEG4/ISO/AVC
Duration : 1h 47mn
Bit rate : 12.5 Mbps
Width : 1 920 pixels
Height : 1 040 pixels
Display aspect ratio : 1.85:1
Frame rate mode : Constant
Frame rate : 23.976 fps
Color space : YUV
Chroma subsampling : 4:2:0
Bit depth : 8 bits
Scan type : Progressive
Bits/(Pixel*Frame) : 0.261
Stream size : 9.16 GiB (87%)
Writing library : x264 core 79 r1336M 2a35a01
Encoding settings : cabac=1 / ref=4 / deblock=1:-3:-3 / analyse=0x3:0x113 / me=umh / subme=10 / psy=1 / psy_rd=1.0:0.1 / mixed_ref=1 / me_range=32 / chroma_me=1 / trellis=2 / 8x8dct=1 / cqm=2 / deadzone=21,11 / chroma_qp_offset=-2 / threads=12 / nr=0 / decimate=0 / mbaff=0 / constrained_intra=0 / bframes=3 / b_pyramid=2 / b_adapt=2 / b_bias=0 / direct=3 / wpredb=1 / wpredp=0 / keyint=250 / keyint_min=25 / scenecut=40 / rc_lookahead=0 / rc=2pass / mbtree=0 / bitrate=12490 / ratetol=1.0 / qcomp=0.60 / qpmin=10 / qpmax=51 / qpstep=4 / cplxblur=20.0 / qblur=0.5 / vbv_maxrate=50000 / vbv_bufsize=50000 / ip_ratio=1.40 / pb_ratio=1.30 / aq=1:1.00
Language : English
Default : Yes
Forced : No

Audio
ID : 2
Format : DTS
Format/Info : Digital Theater Systems
Mode : 16
Format settings, Endianness : Big
Codec ID : A_DTS
Duration : 1h 47mn
Bit rate mode : Constant
Bit rate : 1 509 Kbps
Channel(s) : 6 channels
Channel positions : Front: L C R, Side: L R, LFE
Sampling rate : 48.0 KHz
Bit depth : 24 bits
Compression mode : Lossy
Stream size : 1.13 GiB (11%)
Language : English
Default : Yes
Forced : No

Text
ID : 3
Format : UTF-8
Codec ID : S_TEXT/UTF8
Codec ID/Info : UTF-8 Plain Text
Language : English
Default : No
Forced : No




#1楼
发帖时间:2020-09-27 11:45:25   |   回复数:0
游客组