q3r3
武林盟主

[更 早] [欧美] [剧情] [BD-1080P] 太阳泪/太阳之泪 Tears.of.the.Sun.2003.1080p.BluRay.x264.DTS-FGT 10.56GB

-->

帖子完整标题:太阳泪/太阳之泪 Tears.of.the.Sun.2003.1080p.BluRay.x264.DTS-FGT 10.56GB



◎译  名 太阳泪/太阳之泪/战鹰一号(港)/猎日风暴(台)/英雄泪
◎片  名 Tears of the Sun
◎年  代 2003
◎产  地 美国
◎类  别 剧情 / 动作 / 惊悚 / 战争
◎语  言 英语
◎上映日期 2003-03-07
◎IMDb评分 6.6/10 from 111459 users
◎IMDb链接 https://www.imdb.com/title/tt0314353/
◎豆瓣评分 7.3/10 from 34482 users
◎豆瓣链接 https://movie.douban.com/subject/1307463/
◎片  长 121分钟
◎导  演 安东尼·福奎阿 Antoine Fuqua
◎主  演 布鲁斯·威利斯 Bruce Willis
      莫妮卡·贝鲁奇 Monica Bellucci
      科尔·豪瑟 Cole Hauser
      约翰尼·梅辛纳 Johnny Messner
      保罗·弗朗西斯 Paul Francis
      查德·史密斯 Chad Smith
      马利克·鲍恩斯 Malick Bowens
      本杰明·奥切恩格 Benjamin Ochieng
      查尔斯·英格拉姆 Charles Ingram
      查德·史密斯 Chad Smith
      萨米·罗蒂比 Sammi Rotibi
      Cornelia Hayes O'Herlihy
      威廉·伍德 William Wood
      阿科苏阿·巴西亚 Akosua Busia
      哈里·范·戈库姆 Harry Van Gorkum
      贾斯汀·罗杰斯豪尔 Justin Rodgers Hall
      Awino Gam
      吉米·让-刘易斯 Jimmy Jean-Louis
      Hadar Busia-Singleton
      Jewel McDonald
      汤姆·斯凯里特 Tom Skerritt
      尼克·齐兰德 Nick Chinlund
      彼得·门萨 Peter Mensah
      菲奥纽拉·弗拉纳根 Fionnula Flanagan
      伊默恩·沃克 Eamonn Walker
      艾莉森·迪安 Allison Dean

◎标  签 战争 | 美国 | 布鲁斯·威利斯 | 人性 | 动作 | 美国电影 | BruceWillis | 2003

◎简  介

  美国海军下属“海豹”特种突击队队长沃特斯(布鲁斯·威利斯 Bruce Willis 饰)带领一支小分队前往非洲密林执行命令:把在当地进行紧急医护工作的莱娜医生(莫妮卡·贝鲁齐 Monica Bellucci 饰)营救出来。小分队很快找到了莱娜医生,但在最后关头莱娜医生提出要把这里的70个难民一起转移的要求,否则自己也不会离开。沃特斯犯难了,非洲原始丛林天险众多,而且有剧毒莫测的野生动物,小分队人数不够,如何带着70个老弱病残逃离?然而人道主义最终打了胜仗,这支小分队在前有丛林、后有追兵的情况下带领这浩浩荡荡几十人开始了转移的道路,一个接一个的士兵倒下,生命的价值在这里人人平等。

Video
ID : 1
Format : AVC
Format/Info : Advanced Video Codec
Format profile : [email protected]
Format settings : CABAC / 5 Ref Frames
Format settings, CABAC : Yes
Format settings, Reference frames : 5 frames
Codec ID : V_MPEG4/ISO/AVC
Duration : 2 h 0 min
Bit rate : 11.0 Mb/s
Width : 1 920 pixels
Height : 800 pixels
Display aspect ratio : 2.40:1
Frame rate mode : Constant
Frame rate : 23.976 (24000/1001/189150) FPS
Color space : YUV
Chroma subsampling : 4:2:0
Bit depth : 8 bits
Scan type : Progressive
Bits/(Pixel*Frame) : 0.299
Stream size : 9.08 GiB (86%)
Writing library : x264 core 133 r2334kMod a3ac64b
Encoding settings : cabac=1 / ref=5 / deblock=1:-2:-2 / analyse=0x3:0x113 / me=umh / subme=11 / psy=1 / fade_compensate=0.00 / psy_rd=1.00:0.00 / mixed_ref=1 / me_range=48 / chroma_me=1 / trellis=2 / 8x8dct=1 / cqm=0 / deadzone=21,11 / fast_pskip=0 / chroma_qp_offset=-2 / threads=12 / lookahead_threads=2 / sliced_threads=0 / nr=0 / decimate=1 / interlaced=0 / bluray_compat=0 / constrained_intra=0 / bframes=8 / b_pyramid=2 / b_adapt=2 / b_bias=0 / direct=3 / weightb=1 / open_gop=0 / weightp=2 / keyint=250 / keyint_min=23 / scenecut=40 / intra_refresh=0 / rc_lookahead=40 / rc=2pass / mbtree=0 / bitrate=11000 / ratetol=1.0 / qcomp=0.70 / qpmin=0 / qpmax=69 / qpstep=4 / cplxblur=20.0 / qblur=0.5 / vbv_maxrate=62500 / vbv_bufsize=78125 / nal_hrd=none / ip_ratio=1.30 / pb_ratio=1.30 / aq=1:0.80
Language : English
Default : Yes
Forced : No
Color range : Limited
Color primaries : BT.709
Transfer characteristics : BT.709
Matrix coefficients : BT.709

Audio
ID : 2
Format : DTS
Format/Info : Digital Theater Systems
Codec ID : A_DTS
Duration : 2 h 0 min
Bit rate mode : Constant
Bit rate : 1 509 kb/s
Channel(s) : 6 channels
Channel layout : C L R Ls Rs LFE
Sampling rate : 48.0 kHz
Frame rate : 93.750 FPS (512 SPF)
Bit depth : 16 bits
Compression mode : Lossy
Stream size : 1.27 GiB (12%)
Language : English
Default : Yes
Forced : No

Text
ID : 3
Format : UTF-8
Codec ID : S_TEXT/UTF8
Codec ID/Info : UTF-8 Plain Text
Language : English
Default : No
Forced : No

Menu
00:00:00.000 : en:Start
00:07:31.826 : en:Somewhere Off the Coast of Africa
00:15:26.467 : en:Lt. Waters' Elite Squadron
00:23:23.568 : en:The Prime Objective
00:30:12.811 : en:St. Michael's Mission
00:36:49.665 : en:"I Will Not Leave Without My People."
00:45:13.544 : en:Evacuating the Mission
00:53:35.879 : en:Danger on the Trail
01:03:13.080 : en:Cleansing the House of God
01:09:24.493 : en:Objective Accomplished
01:16:02.891 : en:Burn Down the Mission
01:24:27.604 : en:"We Can Only Take Twelve."
01:32:14.820 : en:Possible Hostiles
01:39:17.826 : en:Ringside Seats to an Ethnic Cleansing
01:44:19.503 : en:Rule of Engagement Party
01:48:34.925 : en:"This Is What They Do."





1 个附件 售价 大小 下载 时间

Tears.of.the.Sun.2003.1080p.BluRay.x264.DTS-FGT.zip 0 金币 28.00K 721 次 25天前

#1楼
发帖时间:2020-09-27 11:20:16   |   回复数:0
游客组