q3r3
武林盟主

[2013] [其他] [剧情] [BD-1080P] 了不起的盖茨比/大亨小传 The.Great.Gatsby.2013.1080p.BluRay.x264.DTS-FGT 15.38GB

-->

帖子完整标题:了不起的盖茨比/大亨小传 The.Great.Gatsby.2013.1080p.BluRay.x264.DTS-FGT 15.38GB



◎译  名 了不起的盖茨比/大亨小传(港/台)
◎片  名 The Great Gatsby
◎年  代 2013
◎产  地 澳大利亚,美国
◎类  别 剧情 / 爱情
◎语  言 英语
◎上映日期 2013-05-01(纽约首映) / 2013-05-10(美国) / 2013-08-30(中国大陆)
◎IMDb评分 7.2/10 from 468089 users
◎IMDb链接 https://www.imdb.com/title/tt1343092/
◎豆瓣评分 7.9/10 from 481953 users
◎豆瓣链接 https://movie.douban.com/subject/3364223/
◎片  长 143分钟(美国)
◎导  演 巴兹·鲁赫曼 Baz Luhrmann
◎编  剧 巴兹·鲁赫曼 Baz Luhrmann / 克雷格·皮尔斯 Craig Pearce / F·司各特·菲茨杰拉德 F. Scott Fitzgerald
◎主  演 莱昂纳多·迪卡普里奥 Leonardo DiCaprio
      凯瑞·穆里根 Carey Mulligan
      托比·马奎尔 Tobey Maguire
      伊丽莎白·德比茨基 Elizabeth Debicki
      艾拉·菲舍尔 Isla Fisher
      乔尔·埃哲顿 Joel Edgerton
      杰森·克拉克 Jason Clarke
      卡兰·麦克奥利菲 Callan McAuliffe
      阿米达普·巴强 Amitabh Bachchan
      丽莎·亚当 Lisa Adam
      史提夫·比斯利 Steve Bisley
      理查德·卡特 Richard Carter
      阿德莱德·克莱蒙丝 Adelaide Clemens
      文斯·科洛斯莫 Vince Colosimo
      马克斯·库伦 Max Cullen
      马尔·戴 Mal Day
      伊甸·福尔克 Eden Falk
      加勒特·威廉·方丹 Garrett William Fountain
      肖恩·哈普 Sean Hape
      Stephen James King
      戈兰·D·克鲁特 Goran D. Kleut
      哈米什·迈克尔 Hamish Michael
      Heather Mitchell
      凯特·马尔瓦尼 Kate Mulvany
      巴里·奥托 Barry Otto
      John 'Cha Cha' O'Connell
      尼克·泰特 Nick Tate
      杰克·汤普森 Jack Thompson
      嘉玛·沃德 Gemma Ward
      马修·惠德特 Matthew Whittet
      费利克斯·威廉森 Felix Williamson
      比尔·扬 Bill Young
      劳拉·穆拉凯 Lara Mulcahy
      巴兹·鲁赫曼 Baz Luhrmann
      瑞安·库柏 Ryan Cooper
      金锋 Feng Jin
      埃迪·里查德 Eddie Ritchard

◎标  签 美国 | 爱情 | 原著改编 | 人性 | 剧情 | 经典 | 文艺 | 人生

◎简  介

  1922年的春天,作家尼克(托比?马奎尔 Tobey Maguire 饰)满怀希望离开家乡,随淘金热潮来到纽约这个新兴的城市,虽然这里爵士乐流行,股票飞涨,但是贫富两极分化,人们沉沦在纸醉金迷中。尼克为了追寻美国梦,放弃写作而进入证券市场,并搬入纽约附近的海湾居住,成为了神秘富豪盖茨比(莱昂纳多?迪卡普里奥 Leonardo DiCaprio 饰)的邻居。而海湾的对岸住着尼克的表妹黛西(凯瑞?穆里根 Carey Mulligan 饰)和她的贵族丈夫汤姆(乔尔?埃哲顿 Joel Edgerton 饰),尼克不仅被邀请去赴宴,之后汤姆还带着他去找情妇寻欢,尼克渐渐迷失在这个充满魅力,以及富豪编制的假象、爱与谎言的世界中。
  
  但是只有盖茨比最特别,他是唯一让尼克感到在这个迷失城市里充满希望的人。尼克被邀请参加了盖茨比豪宅中的盛宴,还发现盖茨比心中的秘密,原来他一直深爱着黛西,即使她没等到他战后归来,转而嫁给富豪汤姆,盖茨比一直深信他们的爱情矢志不渝。尼克作为盖茨比与黛西爱情的见证者,终于在盖茨比被谋杀之后,看清了这个上流社会的虚情寡义,决心远离喧嚣、冷漠、虚假的大都市,黯然回到故乡……

◎获奖情况

  第86届奥斯卡金像奖 ?(2014)
  最佳艺术指导 贝弗利·邓恩?/?凯瑟琳·马丁
  最佳服装设计 凯瑟琳·马丁
  
  第16届美国服装设计工会奖 ?(2014)
  年代电影最佳服装设计(提名) 凯瑟琳·马丁
  
  第61届美国音效剪辑协会奖 ?(2014)
  金卷轴奖最佳配乐剪辑 杰森·鲁德?/?蒂姆·瑞恩?/?克雷格·贝克特
  
  第12届美国视觉效果协会奖 ?(2014)
  最佳电影辅助视觉效果(提名) 乔伊斯·科克斯?/?克里斯·加德弗雷
  
  第19届美国评论家选择电影奖 ?(2014)
  最佳歌曲(提名) 拉娜·德雷
  最佳美术指导 贝弗利·邓恩?/?凯瑟琳·马丁
  最佳服装设计 凯瑟琳·马丁
  
  第18届金卫星奖 ?(2014)
  电影部门最佳原创歌曲
  电影部门最佳美术指导 贝弗利·邓恩?/?凯瑟琳·马丁
  电影部门最佳服装设计(提名) 凯瑟琳·马丁
  
  第12届华盛顿影评人协会奖 ?(2013)
  最佳导演(提名) 巴兹·鲁赫曼
  最佳摄影(提名)
  最佳艺术指导
  
  第18届圣地亚哥影评人协会奖 ?(2013)
  最佳摄影(提名) 西蒙·达根
  最佳艺术指导 凯伦·墨菲?/?凯瑟琳·马丁
  
  第13届凤凰城影评人协会奖 ?(2013)
  最佳原创歌曲(提名)
  最佳摄影(提名) 西蒙·达根
  最佳服装设计 凯瑟琳·马丁
  最佳艺术指导(提名) 凯伦·墨菲?/?凯瑟琳·马丁
  
  第15届美国青少年选择奖 ?(2013)
  最佳剧情片(提名)
  最佳剧情片男演员(提名) 莱昂纳多·迪卡普里奥
  最佳剧情片女演员(提名) 凯瑞·穆里根
  
  第4届豆瓣电影鑫像奖 ?(2014)
  鑫豆单元最佳爱情片(提名)
  豆渣单元最渣导演(外语)(提名) 巴兹·鲁赫曼
  鑫豆单元最佳配乐
  豆渣单元最渣女演员(外语) 凯瑞·穆里根
  鑫豆单元最佳歌曲(提名)

Video
ID : 1
Format : AVC
Format/Info : Advanced Video Codec
Format profile : [email protected]
Format settings, CABAC : Yes
Format settings, ReFrames : 5 frames
Codec ID : V_MPEG4/ISO/AVC
Duration : 2h 22mn
Bit rate : 13.7 Mbps
Width : 1 920 pixels
Height : 800 pixels
Display aspect ratio : 2.40:1
Frame rate mode : Constant
Frame rate : 23.976 fps
Color space : YUV
Chroma subsampling : 4:2:0
Bit depth : 8 bits
Scan type : Progressive
Bits/(Pixel*Frame) : 0.371
Stream size : 13.6 GiB (88%)
Writing library : x264 core 136 r2348+704+51 d1baef6 tMod [[email protected]:2:0 X86]
Encoding settings : cabac=1 / ref=5 / deblock=1:-3:-3 / analyse=0x3:0x113 / me=umh / subme=10 / psy=1 / fade_compensate=0.00 / psy_rd=1.08:0.05 / mixed_ref=1 / me_range=32 / chroma_me=1 / trellis=2 / 8x8dct=1 / cqm=0 / deadzone=21,11 / fast_pskip=0 / chroma_qp_offset=-3 / threads=6 / lookahead_threads=1 / sliced_threads=0 / nr=0 / decimate=0 / interlaced=0 / bluray_compat=0 / constrained_intra=0 / fgo=0 / bframes=8 / b_pyramid=2 / b_adapt=2 / b_bias=0 / direct=3 / weightb=1 / open_gop=0 / weightp=2 / keyint=250 / keyint_min=23 / scenecut=40 / intra_refresh=0 / rc_lookahead=60 / rc=crf / mbtree=0 / crf=18.0000 / qcomp=0.75 / qpmin=0:0:0 / qpmax=69:69:69 / qpstep=4 / vbv_maxrate=50000 / vbv_bufsize=62500 / crf_max=0.0 / nal_hrd=none / ip_ratio=1.20 / pb_ratio=1.10 / aq=3:0.75 / aq-sensitivity=10.00 / aq-factor=1.00:1.00:1.00 / aq2=0 / aq3=0
Language : English
Default : Yes
Forced : No

Audio
ID : 2
Format : DTS
Format/Info : Digital Theater Systems
Mode : 16
Format settings, Endianness : Big
Codec ID : A_DTS
Duration : 2h 22mn
Bit rate mode : Constant
Bit rate : 1 509 Kbps
Channel(s) : 6 channels
Channel positions : Front: L C R, Side: L R, LFE
Sampling rate : 48.0 KHz
Bit depth : 24 bits
Compression mode : Lossy
Delay relative to video : 11ms
Stream size : 1.50 GiB (10%)
Language : English
Default : Yes
Forced : No

Text #1
ID : 3
Format : UTF-8
Codec ID : S_TEXT/UTF8
Codec ID/Info : UTF-8 Plain Text
Language : English
Default : No
Forced : No

Text #2
ID : 4
Format : UTF-8
Codec ID : S_TEXT/UTF8
Codec ID/Info : UTF-8 Plain Text
Title : SDH
Language : English
Default : No
Forced : No

Text #3
ID : 5
Format : UTF-8
Codec ID : S_TEXT/UTF8
Codec ID/Info : UTF-8 Plain Text
Title : SDH-COLORED
Language : English
Default : No
Forced : No

Menu
00:00:00.000 : en:00:00:00.000
00:11:04.080 : en:00:11:04.080
00:22:55.833 : en:00:22:55.833
00:34:26.898 : en:00:34:26.898
00:44:48.728 : en:00:44:48.728
00:55:36.333 : en:00:55:36.333
01:06:20.643 : en:01:06:20.643
01:18:27.786 : en:01:18:27.786
01:31:13.927 : en:01:31:13.927
01:44:11.954 : en:01:44:11.954
01:56:35.155 : en:01:56:35.155
02:05:46.122 : en:02:05:46.122
02:09:40.982 : en:02:09:40.982





1 个附件 售价 大小 下载 时间

The.Great.Gatsby.2013.1080p.BluRay.x264.DTS-FGT.zip 0 金币 40.08K 574 次 25天前

#1楼
发帖时间:2020-09-27 11:14:59   |   回复数:0
游客组