squallzhao
武林盟主

[更 早] [其他] [剧情] [BD-1080P] 断背山 Brokeback.Mountain.2005.1080p.BluRay.x264.DTS-FGT 8.43GB

-->

帖子完整标题:断背山 Brokeback.Mountain.2005.1080p.BluRay.x264.DTS-FGT 8.43GB



◎译  名 断背山/BBM/断臂山
◎片  名 Brokeback Mountain
◎年  代 2005
◎产  地 美国,加拿大
◎类  别 剧情 / 爱情 / 同性 / 家庭
◎语  言 英语
◎上映日期 2005-09-02(威尼斯电影节) / 2006-01-06(加拿大) / 2006-01-13(美国)
◎IMDb评分 7.7/10 from 317886 users
◎IMDb链接 https://www.imdb.com/title/tt0388795/
◎豆瓣评分 8.8/10 from 556251 users
◎豆瓣链接 https://movie.douban.com/subject/1418834/
◎片  长 134分钟
◎导  演 李安 Ang Lee
◎编  剧 拉里·麦克穆特瑞 Larry McMurtry / 黛安娜·奥撒纳 Diana Ossana / 安妮·普鲁 Annie Proulx
◎主  演 希斯·莱杰 Heath Ledger
      杰克·吉伦哈尔 Jake Gyllenhaal
      米歇尔·威廉姆斯 Michelle Williams
      安妮·海瑟薇 Anne Hathaway
      凯特·玛拉 Kate Mara
      兰迪·奎德 Randy Quaid
      琳达·卡德里尼 Linda Cardellini
      安娜·法瑞丝 Anna Faris
      格拉汉姆·贝克尔 Graham Beckel
      斯科特·迈克尔·坎贝尔 Scott Michael Campbell
      大卫·哈伯 David Harbour
      罗伯塔·马克斯韦尔 Roberta Maxwell
      皮特·麦克罗比 Peter McRobbie
      夏恩·希尔 Cheyenne Hill
      布鲁克琳·普劳克斯 Brooklynn Proulx
      杰克·丘奇 Jake Church
      罗德里戈·普列托 Rodrigo Prieto
      大卫·达斯马齐连 David Dastmalchian

◎标  签 同性 | 爱情 | 美国 | 经典 | 感人 | 人生 | 剧情 | 温情

◎简  介

  美国怀俄明州的西部,沉默寡言的农夫恩尼斯(希斯?莱杰饰)和热情开朗的牛仔杰克(杰克?吉伦希尔饰)一道被派到山上牧羊,那里人迹罕至,他们只有与羊群为伴,生活单调无味。一个天寒地冻的夜晚,在酒精与荷尔蒙的作用下,他们做了“不该做的事情”,也就此他们在断背山上度过了人生中最美好的时光。
  
  季节性放牧结束,迫于世俗压力,杰克和恩尼斯不舍地与对方分离并各自结婚生子。恩尼斯迎娶了自幼相识的阿尔玛,并有了两个可爱的女儿;杰克到了德州,在妻子露琳家族的扶植下事业顺利,还有了个儿子。虽然彼此真心相应,他们只能每年定期约会。一边知情的阿尔玛痛苦无比,而他们又无法满足一年只有几天的团聚。这时意外发生……

◎获奖情况

  第78届奥斯卡金像奖 ?(2006)
  最佳影片(提名) 詹姆斯·夏慕斯?/?黛安娜·奥撒纳
  最佳导演 李安
  最佳男主角(提名) 希斯·莱杰
  最佳男配角(提名) 杰克·吉伦哈尔
  最佳女配角(提名) 米歇尔·威廉姆斯
  最佳改编剧本 拉里·麦克穆特瑞?/?黛安娜·奥撒纳
  最佳摄影(提名) 罗德里戈·普列托
  最佳原创配乐 古斯塔沃·桑多拉拉
  
  第62届威尼斯电影节 ?(2005)
  主竞赛单元金狮奖 李安
  
  第63届金球奖 ?(2006)
  电影类最佳剧情片
  电影类最佳导演 李安
  电影类剧情片最佳男主角(提名) 希斯·莱杰
  电影类最佳女配角(提名) 米歇尔·威廉姆斯
  电影类最佳编剧 拉里·麦克穆特瑞?/?黛安娜·奥撒纳
  电影类最佳原创配乐(提名) 古斯塔沃·桑多拉拉
  电影类最佳原创歌曲 古斯塔沃·桑多拉拉?/?贝尔尼·陶宾
  
  第59届英国电影学院奖 ?(2006)
  电影奖最佳影片 詹姆斯·夏慕斯?/?黛安娜·奥撒纳
  电影奖最佳导演 李安
  电影奖最佳男主角(提名) 希斯·莱杰
  电影奖最佳男配角 杰克·吉伦哈尔
  电影奖最佳女配角(提名) 米歇尔·威廉姆斯
  电影奖最佳改编剧本 拉里·麦克穆特瑞?/?黛安娜·奥撒纳
  电影奖最佳摄影(提名) 罗德里戈·普列托
  电影奖最佳剪辑(提名) 杰拉丁·佩罗尼?/?迪伦·蒂奇纳
  电影奖最佳原创音乐(提名) 古斯塔沃·桑多拉拉
  
  第15届MTV电影奖 ?(2006)
  MTV电影奖最佳表演 杰克·吉伦哈尔
  MTV电影奖最佳吻戏 杰克·吉伦哈尔?/?希斯·莱杰
  
  第6届美国电影学会奖 ?(2005)
  年度佳片

Video
ID : 1
Format : AVC
Format/Info : Advanced Video Codec
Format profile : [email protected]
Format settings : CABAC / 4 Ref Frames
Format settings, CABAC : Yes
Format settings, Reference frames : 4 frames
Codec ID : V_MPEG4/ISO/AVC
Duration : 2 h 14 min
Bit rate : 7 285 kb/s
Width : 1 920 pixels
Height : 1 040 pixels
Display aspect ratio : 1.85:1
Frame rate mode : Constant
Frame rate : 23.976 (24000/1001/189150) FPS
Color space : YUV
Chroma subsampling : 4:2:0
Bit depth : 8 bits
Scan type : Progressive
Bits/(Pixel*Frame) : 0.152
Stream size : 6.84 GiB (81%)
Writing library : x264 core 142 r2431+42 c69a006 tMod [[email protected]:2:0 X86_64]
Encoding settings : cabac=1 / ref=4 / deblock=1:-3:-3 / analyse=0x3:0x113 / me=umh / subme=11 / psy=1 / fade_compensate=0.00 / psy_rd=1.00:0.05 / mixed_ref=1 / me_range=48 / chroma_me=1 / trellis=2 / 8x8dct=1 / cqm=0 / deadzone=21,11 / fast_pskip=0 / chroma_qp_offset=-2 / threads=12 / lookahead_threads=2 / sliced_threads=0 / nr=0 / decimate=1 / interlaced=0 / bluray_compat=0 / constrained_intra=0 / fgo=0 / bframes=8 / b_pyramid=2 / b_adapt=2 / b_bias=0 / direct=3 / weightb=1 / open_gop=0 / weightp=2 / keyint=250 / keyint_min=23 / scenecut=40 / intra_refresh=0 / rc_lookahead=40 / rc=crf / mbtree=0 / crf=19.4500 / qcomp=0.60 / qpmin=0:0:0 / qpmax=69:69:69 / qpstep=4 / vbv_maxrate=40000 / vbv_bufsize=30000 / crf_max=0.0 / nal_hrd=none / filler=0 / ip_ratio=1.40 / pb_ratio=1.30 / aq=3:1.00 / aq-sensitivity=10.00 / aq-factor=1.00:1.00:1.00 / aq2=0 / aq3=0
Language : English
Default : Yes
Forced : No

Audio
ID : 2
Format : DTS
Format/Info : Digital Theater Systems
Codec ID : A_DTS
Duration : 2 h 14 min
Bit rate mode : Constant
Bit rate : 1 509 kb/s
Channel(s) : 6 channels
Channel layout : C L R Ls Rs LFE
Sampling rate : 48.0 kHz
Frame rate : 93.750 FPS (512 SPF)
Bit depth : 24 bits
Compression mode : Lossy
Stream size : 1.42 GiB (17%)
Language : English
Default : Yes
Forced : No





1 个附件 售价 大小 下载 时间

Brokeback.Mountain.2005.1080p.BluRay.x264.DTS-FGT.zip 0 金币 85.74K 504 次 28天前

#1楼
发帖时间:2020-09-27 10:49:33   |   回复数:0
游客组