squallzhao
武林盟主

[2006] [其他] [剧情] [BD-1080P] 糖果/爱情毒针 Candy.2006.1080p.BluRay.x264.DTS-FGT 9.29GB

-->

帖子完整标题:糖果/爱情毒针 Candy.2006.1080p.BluRay.x264.DTS-FGT 9.29GB



◎译  名 糖果/爱情毒针/迷幻甜心
◎片  名 Candy
◎年  代 2006
◎产  地 澳大利亚
◎类  别 剧情 / 爱情
◎语  言 英语
◎上映日期 2006-05-23
◎IMDb评分 7.2/10 from 42859 users
◎IMDb链接 https://www.imdb.com/title/tt0424880/
◎豆瓣评分 7.6/10 from 5691 users
◎豆瓣链接 https://movie.douban.com/subject/1499796/
◎片  长 Australia: 116 分钟
◎导  演 尼尔·阿姆菲尔德 Neil Armfield
◎编  剧 尼尔·阿姆菲尔德 Neil Armfield / 卢克·戴维斯 Luke Davies
◎主  演 希斯·莱杰 Heath Ledger
      杰弗里·拉什 Geoffrey Rush
      艾比·考尼什 Abbie Cornish
      卢克·戴维斯 Luke Davies
      达蒙·海瑞曼 Damon Herriman
      纳撒尼尔·迪安 Nathaniel Dean
      托尼·马丁 Tony Martin

◎标  签 澳大利亚 | 爱情 | HeathLedger | 毒品 | 青春 | 希斯·莱杰 | 2006 | 澳大利亚电影

◎简  介

  丹(希斯?莱杰 饰)与美丽的糖果(艾比?考尼什 饰)相爱了。两人在一起之后一起出游,他们相处的时光充满了爱意。可是糖果是个吸毒者,她喜欢吸食海洛因,而且她还让男友丹一起吸食。他们利用吸毒后的极度兴奋的状态,企图为生活带来更多刺激。
  
  即使糖果的父母指责丹没有把他们的女儿从毒海中营救出来,甚至与她一起泥足深陷。其实他们有尝试戒除毒瘾,可是他们又受到了丹的同性恋朋友卡斯珀(杰弗里?拉什 饰)的影响,毒瘾越来越大,生活变得越来越堕落……

◎获奖情况

  第56届柏林国际电影节 ?(2006)
  金熊奖最佳影片(提名) 尼尔·阿姆菲尔德

Video
ID : 1
Format : AVC
Format/Info : Advanced Video Codec
Format profile : [email protected]
Format settings : CABAC / 4 Ref Frames
Format settings, CABAC : Yes
Format settings, Reference frames : 4 frames
Codec ID : V_MPEG4/ISO/AVC
Duration : 1 h 48 min
Bit rate : 10.5 Mb/s
Width : 1 920 pixels
Height : 1 040 pixels
Display aspect ratio : 1.85:1
Frame rate mode : Constant
Frame rate : 23.976 (24000/1001/189150) FPS
Color space : YUV
Chroma subsampling : 4:2:0
Bit depth : 8 bits
Scan type : Progressive
Bits/(Pixel*Frame) : 0.220
Stream size : 7.96 GiB (86%)
Title : Candy - Reise der Engel
Writing library : x264 core 120 r2120 0c7dab9
Encoding settings : cabac=1 / ref=4 / deblock=1:-1:-1 / analyse=0x3:0x133 / me=umh / subme=7 / psy=1 / psy_rd=1.00:0.15 / mixed_ref=1 / me_range=16 / chroma_me=1 / trellis=1 / 8x8dct=1 / cqm=0 / deadzone=21,11 / fast_pskip=0 / chroma_qp_offset=-3 / threads=12 / sliced_threads=0 / nr=0 / decimate=1 / interlaced=0 / bluray_compat=0 / constrained_intra=0 / bframes=3 / b_pyramid=2 / b_adapt=1 / b_bias=0 / direct=3 / weightb=1 / open_gop=0 / weightp=2 / keyint=250 / keyint_min=23 / scenecut=40 / intra_refresh=0 / rc_lookahead=40 / rc=crf / mbtree=1 / crf=20.0 / qcomp=0.60 / qpmin=0 / qpmax=69 / qpstep=4 / ip_ratio=1.40 / aq=1:1.00
Default : Yes
Forced : No

Audio
ID : 2
Format : DTS
Format/Info : Digital Theater Systems
Codec ID : A_DTS
Duration : 1 h 48 min
Bit rate mode : Constant
Bit rate : 1 509 kb/s
Channel(s) : 6 channels
Channel layout : C L R Ls Rs LFE
Sampling rate : 48.0 kHz
Frame rate : 93.750 FPS (512 SPF)
Bit depth : 24 bits
Compression mode : Lossy
Stream size : 1.14 GiB (12%)
Title : DTS
Language : English
Default : No
Forced : No





1 个附件 售价 大小 下载 时间

Candy.2006.1080p.BluRay.x264.DTS-FGT.zip 0 金币 94.28K 238 次 25天前

#1楼
发帖时间:2020-09-27 10:34:01   |   回复数:0
游客组