squallzhao
武林盟主

[2011] [其他] [剧情] [BD-1080P] 黑金 Day.of.the.Falcon.2011.1080p.BluRay.x264.DTS-FGT 13.12GB

-->

帖子完整标题:黑金 Day.of.the.Falcon.2011.1080p.BluRay.x264.DTS-FGT 13.12GB



◎译  名 黑金/Black Gold/Black Thirst/Day of the Falcon
◎片  名 Or noir
◎年  代 2011
◎产  地 法国,意大利,卡塔尔,突尼斯
◎类  别 剧情
◎语  言 英语
◎上映日期 2011-11-23(法国) / 2012-08-18(中国大陆)
◎IMDb评分 6.7/10 from 11092 users
◎IMDb链接 https://www.imdb.com/title/tt1701210/
◎豆瓣评分 7.4/10 from 6209 users
◎豆瓣链接 https://movie.douban.com/subject/5046033/
◎片  长 130分钟
◎导  演 让-雅克·阿诺 Jean-Jacques Annaud
◎编  剧 让-雅克·阿诺 Jean-Jacques Annaud / 门诺·迈依杰斯 Menno Meyjes / 汉斯·鲁斯克 Hans Ruesch / 阿兰·戈达尔 Alain Godard
◎主  演 芙蕾达·平托 Freida Pinto
      安东尼奥·班德拉斯 Antonio Banderas
      马克·斯特朗 Mark Strong
      里兹·阿迈德 Riz Ahmed
      塔哈·拉希姆 Tahar Rahim
      莉亚·科贝德 Liya Kebede
      克里·约翰逊 Corey Johnson
      艾瑞克·艾伯纳尼 Eriq Ebouaney
      阿金·加齐 Akin Gazi

◎标  签 阿拉伯 | 战争 | 法国 | 沙漠战争 | 石油 | 剧情 | 历史 | 2011

◎简  介

  奥达(塔哈·拉希姆 Tahar Rahim 饰)和哥哥从小被寄养在纳萨比门下,纳萨比(安东尼奥·班德拉斯 Antonio Banderas 饰)在一次意外的发现了石油开掘后成为富甲一方的首领,逐渐与境外势力勾结,为了“黑金”置百姓与水深火热而不顾,并为了扩大权势将奥达与公主(芙蕾达·平托 Freida Pinto 饰)联姻。奥达的父亲带领阿拉伯平民,决心向纳萨比宣战,并鼓动自己的亲生儿子奥达的加入,但此刻纳萨比已占有高端军事武器,双方实力悬殊巨大。生性不好战的奥达挣扎在两个“父亲”、两个族群之间,不得不做出残酷的选择,为了百姓的生存与和平,与“不可战胜”的养父展开背水一战。

Video
ID : 1
Format : AVC
Format/Info : Advanced Video Codec
Format profile : [email protected]
Format settings : CABAC / 5 Ref Frames
Format settings, CABAC : Yes
Format settings, Reference frames : 5 frames
Codec ID : V_MPEG4/ISO/AVC
Duration : 2 h 10 min
Bit rate : 12.9 Mb/s
Width : 1 920 pixels
Height : 820 pixels
Display aspect ratio : 2.35:1
Frame rate mode : Constant
Frame rate : 23.976 (24000/1001/189150) FPS
Color space : YUV
Chroma subsampling : 4:2:0
Bit depth : 8 bits
Scan type : Progressive
Bits/(Pixel*Frame) : 0.342
Stream size : 11.5 GiB (88%)
Writing library : x264 core 120 r2164 da19765
Encoding settings : cabac=1 / ref=5 / deblock=1:-3:-3 / analyse=0x3:0x133 / me=umh / subme=10 / psy=1 / psy_rd=1.00:0.00 / mixed_ref=1 / me_range=48 / chroma_me=1 / trellis=2 / 8x8dct=1 / cqm=0 / deadzone=21,11 / fast_pskip=1 / chroma_qp_offset=-2 / threads=12 / sliced_threads=0 / nr=0 / decimate=0 / interlaced=0 / bluray_compat=0 / constrained_intra=0 / bframes=7 / b_pyramid=2 / b_adapt=2 / b_bias=0 / direct=3 / weightb=1 / open_gop=0 / weightp=2 / keyint=250 / keyint_min=23 / scenecut=40 / intra_refresh=0 / rc_lookahead=60 / rc=2pass / mbtree=0 / bitrate=12921 / ratetol=1.0 / qcomp=0.60 / qpmin=0 / qpmax=69 / qpstep=4 / cplxblur=20.0 / qblur=0.5 / vbv_maxrate=30000 / vbv_bufsize=30000 / nal_hrd=none / ip_ratio=1.50 / pb_ratio=1.30 / aq=1:1.00
Language : English
Default : Yes
Forced : No

Audio
ID : 2
Format : DTS
Format/Info : Digital Theater Systems
Codec ID : A_DTS
Duration : 2 h 10 min
Bit rate mode : Constant
Bit rate : 1 509 kb/s
Channel(s) : 6 channels
Channel layout : C L R Ls Rs LFE
Sampling rate : 48.0 kHz
Frame rate : 93.750 FPS (512 SPF)
Bit depth : 16 bits
Compression mode : Lossy
Stream size : 1.37 GiB (10%)
Language : English
Default : Yes
Forced : No

Text
ID : 3
Format : UTF-8
Codec ID : S_TEXT/UTF8
Codec ID/Info : UTF-8 Plain Text
Language : English
Default : No
Forced : No

Menu
00:00:00.000 : en:00:00:00.000
00:09:18.266 : en:00:09:18.266
00:19:37.635 : en:00:19:37.635
00:30:46.845 : en:00:30:46.845
00:40:13.703 : en:00:40:13.703
00:50:29.026 : en:00:50:29.026
00:59:45.457 : en:00:59:45.457
01:09:20.823 : en:01:09:20.823
01:18:58.275 : en:01:18:58.275
01:30:08.695 : en:01:30:08.695
01:39:08.734 : en:01:39:08.734
01:49:50.375 : en:01:49:50.375
02:00:24.717 : en:02:00:24.717





1 个附件 售价 大小 下载 时间

Day.of.the.Falcon.2011.1080p.BluRay.x264.DTS-FGT.zip 0 金币 67.03K 413 次 25天前

#1楼
发帖时间:2020-09-27 10:24:44   |   回复数:0
游客组