squallzhao
武林盟主

[更 早] [欧美] [剧情] [BD-1080P] 杀人如麻/生切肉块 Cradle.of.Fear.2001.1080p.BluRay.x264.DTS-FGT 11.29GB

-->

帖子完整标题:杀人如麻/生切肉块 Cradle.of.Fear.2001.1080p.BluRay.x264.DTS-FGT 11.29GB



◎译  名 杀人如麻/生切肉块
◎片  名 Cradle of Fear
◎年  代 2001
◎产  地 英国
◎类  别 剧情 / 悬疑 / 惊悚 / 恐怖 / 犯罪
◎语  言 英语
◎上映日期 2001-07-04
◎IMDb评分 4.3/10 from 3223 users
◎IMDb链接 https://www.imdb.com/title/tt0291833/
◎豆瓣评分 6.6/10 from 646 users
◎豆瓣链接 https://movie.douban.com/subject/1862867/
◎片  长 120分钟
◎主  演 埃米莉·布思 Emily Booth
      艾琳·达利 Eileen Daly
      斯图尔特·莱恩 Stuart Laing
      丹尼·菲尔斯 Dani Filth

◎标  签 血腥 | 恐怖 | 暴力 | 惊悚 | 英国 | 恐怖电影 | cult | 摇滚

◎简  介

  A gruesome homage to the cult Amicus anthology Asylum, Cradle of Fear unfolds four screamplays all linked by the unspeakable need of an incarcerated child killer to wreak vengeance on those responsible for his imprisonment. Helped by deranged angel Dani Filth, who leaves a trail of charnel house death in his crimson wake, the cannibal convict forces two Goth vamps to endure a one night stand from hell, two tough female robbers to see through each other, an obscenely rich coke-head to chop up more than a few lines and an internet surfer to descend into madness when he uncovers the ultimate web depravity.

Video
ID : 1
Format : AVC
Format/Info : Advanced Video Codec
Format profile : [email protected]
Format settings : CABAC / 4 Ref Frames
Format settings, CABAC : Yes
Format settings, Reference frames : 4 frames
Codec ID : V_MPEG4/ISO/AVC
Duration : 2 h 5 min
Bit rate : 11.5 Mb/s
Width : 1 748 pixels
Height : 1 080 pixels
Display aspect ratio : 16:10
Frame rate mode : Constant
Frame rate : 24.000 FPS
Color space : YUV
Chroma subsampling : 4:2:0
Bit depth : 8 bits
Scan type : Progressive
Bits/(Pixel*Frame) : 0.254
Stream size : 9.72 GiB (86%)
Writing library : x264 core 148 r2694 3b70645
Encoding settings : cabac=1 / ref=4 / deblock=1:-2:-2 / analyse=0x3:0x113 / me=umh / subme=7 / psy=1 / psy_rd=1.00:0.15 / mixed_ref=1 / me_range=16 / chroma_me=1 / trellis=1 / 8x8dct=1 / cqm=0 / deadzone=21,11 / fast_pskip=1 / chroma_qp_offset=-3 / threads=24 / lookahead_threads=3 / sliced_threads=0 / nr=0 / decimate=1 / interlaced=0 / bluray_compat=0 / constrained_intra=0 / bframes=3 / b_pyramid=2 / b_adapt=2 / b_bias=0 / direct=3 / weightb=1 / open_gop=0 / weightp=2 / keyint=250 / keyint_min=25 / scenecut=40 / intra_refresh=0 / rc_lookahead=50 / rc=abr / mbtree=1 / bitrate=11500 / ratetol=1.0 / qcomp=0.60 / qpmin=0 / qpmax=69 / qpstep=4 / vbv_maxrate=31250 / vbv_bufsize=31250 / nal_hrd=none / filler=0 / ip_ratio=1.40 / aq=1:1.00
Language : English
Default : Yes
Forced : No

Audio
ID : 2
Format : DTS
Format/Info : Digital Theater Systems
Codec ID : A_DTS
Duration : 2 h 5 min
Bit rate mode : Constant
Bit rate : 1 536 kb/s
Channel(s) : 2 channels
Channel layout : L R
Sampling rate : 48.0 kHz
Frame rate : 93.750 FPS (512 SPF)
Bit depth : 16 bits
Compression mode : Lossy
Stream size : 1.34 GiB (12%)
Language : English
Default : Yes
Forced : No

Menu
00:00:00.000 : en:Chapter 01
00:13:40.000 : en:Chapter 02
00:39:54.875 : en:Chapter 03
00:55:35.000 : en:Chapter 04
01:09:21.375 : en:Chapter 05
01:23:50.791 : en:Chapter 06
01:38:22.416 : en:Chapter 07
01:51:22.791 : en:Chapter 08





1 个附件 售价 大小 下载 时间

Cradle.of.Fear.2001.1080p.BluRay.x264.DTS-FGT.zip 0 金币 57.86K 217 次 25天前

#1楼
发帖时间:2020-09-27 10:22:24   |   回复数:0
游客组