squallzhao
武林盟主

[2017] [欧美] [剧情] [BD-1080P] 女先行者 Woman.Walks.Ahead.2017.1080p.BluRay.x264.DTS-HD.MA.5.1-FGT 9.27GB

-->

帖子完整标题:女先行者 Woman.Walks.Ahead.2017.1080p.BluRay.x264.DTS-HD.MA.5.1-FGT 9.27GB



◎译  名 女先行者
◎片  名 Woman Walks Ahead
◎年  代 2017
◎产  地 美国
◎类  别 剧情 / 传记 / 历史 / 西部
◎语  言 英语
◎上映日期 2017-09-10(多伦多电影节) / 2018-06-29(美国)
◎IMDb评分 6.6/10 from 5413 users
◎IMDb链接 https://www.imdb.com/title/tt5436228/
◎豆瓣评分 6.8/10 from 538 users
◎豆瓣链接 https://movie.douban.com/subject/26723179/
◎片  长 101分钟
◎导  演 苏珊娜·怀特 Susanna White
◎编  剧 斯蒂文·奈特 Steven Knight
◎主  演 杰西卡·查斯坦 Jessica Chastain
      路易莎·克劳瑟 Louisa Krause
      布兹·萨瑟兰德 Boots Southerland
      查斯科·斯宾塞 Chaske Spencer
      塞伦·希德 Ciarán Hinds
      金德尔·查特斯 Kindall Charters
      山姆·洛克威尔 Sam Rockwell
      比尔·坎普 Bill Camp
      麦克尔·格雷耶斯 Michael Greyeyes
      迈克尔·诺里 Michael Nouri
      蕾切尔·德·拉·托尔 Rachel de la Torre
      卢斯·雷恩斯 Luce Rains
      大卫·米德桑德 David Midthunder

◎标  签 美国 | 传记 | 种族 | 女性 | 历史 | 剧情 | 2017 | 西部

◎简  介

  “劳模姐”杰西卡·查斯坦又接新戏,其与《队列之末》导演苏珊娜·怀特携手,拍摄名为《女人向前冲》(Woman Walks Ahead,暂译)的反抗史诗。查斯坦将化身19世纪纽约布鲁克林女性艺术家、活动家卡罗琳·韦尔登。其曾举家迁至达科塔站岩地区,帮助印第安苏族酋长和他的人民维护土地不受侵害。

Video
ID : 1
Format : AVC
Format/Info : Advanced Video Codec
Format profile : [email protected]
Format settings : CABAC / 5 Ref Frames
Format settings, CABAC : Yes
Format settings, ReFrames : 5 frames
Codec ID : V_MPEG4/ISO/AVC
Duration : 1 h 42 min
Bit rate : 9 191 kb/s
Width : 1 920 pixels
Height : 808 pixels
Display aspect ratio : 2.40:1
Frame rate mode : Constant
Frame rate : 23.976 (24000/1001/189150) FPS
Color space : YUV
Chroma subsampling : 4:2:0
Bit depth : 8 bits
Scan type : Progressive
Bits/(Pixel*Frame) : 0.247
Stream size : 6.57 GiB (71%)
Title : Woman.Walks.Ahead.2017.1080p.BluRay.x264.DTS-HD.MA.5.1-FGT
Writing library : x264 core 155 r2901 7d0ff22
Encoding settings : cabac=1 / ref=5 / deblock=1:-3:-3 / analyse=0x3:0x133 / me=umh / subme=8 / psy=1 / psy_rd=1.00:0.00 / mixed_ref=1 / me_range=16 / chroma_me=1 / trellis=1 / 8x8dct=1 / cqm=0 / deadzone=21,11 / fast_pskip=0 / chroma_qp_offset=-2 / threads=25 / lookahead_threads=4 / sliced_threads=0 / nr=0 / decimate=1 / interlaced=0 / bluray_compat=0 / constrained_intra=0 / bframes=3 / b_pyramid=2 / b_adapt=1 / b_bias=0 / direct=3 / weightb=1 / open_gop=0 / weightp=2 / keyint=250 / keyint_min=23 / scenecut=40 / intra_refresh=0 / rc_lookahead=50 / rc=2pass / mbtree=1 / bitrate=9191 / ratetol=1.0 / qcomp=0.60 / qpmin=0 / qpmax=69 / qpstep=4 / cplxblur=20.0 / qblur=0.5 / vbv_maxrate=62500 / vbv_bufsize=78125 / nal_hrd=none / filler=0 / ip_ratio=1.40 / aq=1:1.00
Default : Yes
Forced : No

Audio
ID : 2
Format : DTS
Format/Info : Digital Theater Systems
Format profile : MA / Core
Codec ID : A_DTS
Duration : 1 h 42 min
Bit rate mode : Variable / Constant
Bit rate : 3 741 kb/s / 1 509 kb/s
Channel(s) : 6 channels
Channel positions : Front: L C R, Side: L R, LFE
Sampling rate : 48.0 kHz
Frame rate : 93.750 FPS (512 SPF)
Bit depth : 24 bits
Compression mode : Lossless / Lossy
Stream size : 2.68 GiB (29%)
Title : Woman.Walks.Ahead.2017.1080p.BluRay.x264.DTS-HD.MA.5.1-FGT
Language : English
Default : Yes
Forced : No

Text #1
ID : 3
Format : UTF-8
Codec ID : S_TEXT/UTF8
Codec ID/Info : UTF-8 Plain Text
Duration : 1 h 4 min
Bit rate : 4 b/s
Count of elements : 81
Stream size : 2.06 KiB (0%)
Title : English FORCED-SRT
Language : English
Default : Yes
Forced : Yes

Text #2
ID : 4
Format : UTF-8
Codec ID : S_TEXT/UTF8
Codec ID/Info : UTF-8 Plain Text
Duration : 1 h 31 min
Bit rate : 43 b/s
Count of elements : 845
Stream size : 29.0 KiB (0%)
Title : English-SRT
Language : English
Default : No
Forced : No

Text #3
ID : 5
Format : PGS
Muxing mode : zlib
Codec ID : S_HDMV/PGS
Codec ID/Info : Picture based subtitle format used on BDs/HD-DVDs
Duration : 1 h 34 min
Bit rate : 32.4 kb/s
Count of elements : 1948
Stream size : 21.9 MiB (0%)
Title : English-PGS
Language : English
Default : No
Forced : No

Text #4
ID : 6
Format : PGS
Muxing mode : zlib
Codec ID : S_HDMV/PGS
Codec ID/Info : Picture based subtitle format used on BDs/HD-DVDs
Duration : 1 h 35 min
Bit rate : 30.7 kb/s
Count of elements : 1720
Stream size : 21.0 MiB (0%)
Title : Spanish-PGS
Language : Spanish
Default : No
Forced : No

Text #5
ID : 7
Format : PGS
Muxing mode : zlib
Codec ID : S_HDMV/PGS
Codec ID/Info : Picture based subtitle format used on BDs/HD-DVDs
Duration : 1 h 31 min
Bit rate : 2 299 b/s
Count of elements : 194
Stream size : 1.50 MiB (0%)
Title : English-FORCED-PGS
Language : English
Default : No
Forced : No

Menu
00:00:00.000 : en:Chapter 01
00:05:34.500 : en:Chapter 02
00:12:09.937 : en:Chapter 03
00:18:50.587 : en:Chapter 04
00:24:23.170 : en:Chapter 05
00:31:36.311 : en:Chapter 06
00:37:16.234 : en:Chapter 07
00:44:26.288 : en:Chapter 08
00:49:14.117 : en:Chapter 09
00:57:05.380 : en:Chapter 10
01:03:32.850 : en:Chapter 11
01:08:57.883 : en:Chapter 12
01:14:30.132 : en:Chapter 13
01:22:28.693 : en:Chapter 14
01:28:44.152 : en:Chapter 15
01:32:39.428 : en:Chapter 16





1 个附件 售价 大小 下载 时间

Woman.Walks.Ahead.2017.1080p.BluRay.x264.DTS-HD.MA.5.1-FGT.zip 0 金币 94.15K 322 次 28天前

#1楼
发帖时间:2020-09-27 10:03:53   |   回复数:0
游客组