q3r3
武林盟主

[更 早] [欧美] [剧情] [BD-1080P] 世界众生和恶魔 The.World.The.Flesh.and.The.Devil.1959.1080p.BluRay.x264-PSYCHD 9.85GB

-->

帖子完整标题:世界众生和恶魔 The.World.The.Flesh.and.The.Devil.1959.1080p.BluRay.x264-PSYCHD 9.85GB



◎译  名 世界,众生和恶魔
◎片  名 The World, the Flesh and the Devil
◎年  代 1959
◎产  地 美国
◎类  别 剧情 / 爱情 / 科幻
◎语  言 法语,英语
◎上映日期 1959-05-20
◎IMDb评分 6.9/10 from 2573 users
◎IMDb链接 https://www.imdb.com/title/tt0053454/
◎豆瓣评分 /10 from 0 users
◎豆瓣链接 https://movie.douban.com/subject/1886747/
◎片  长 95 分钟
◎导  演 拉纳尔德·麦克杜格尔 Ranald MacDougall
◎编  剧 甫德南·赖雅 Ferdinand Reyher / 拉纳尔德·麦克杜格尔 Ranald MacDougall
◎主  演 哈里·贝拉方特 Harry Belafonte
      英格儿·斯蒂文斯 Inger Stevens
      梅尔·费勒 Mel Ferrer

◎标  签 美国 | 科幻 | 1959 | 爱情 | 后启示录 | 1950s | 世界末日 | Reyher

◎简  介

  Ralph Burton is a miner who is trapped for several days as a result of a cave-in. When he finally manages to dig himself out, he realizes that all of mankind seems to have been destroyed in a nuclear holocaust. He travels to New York City only to find it deserted. Making a life for himself there, he is flabbergasted to eventually find Sarah Crandall, who also managed to survive. Together, they form a close friendship until the arrival of Benson Thacker who has managed to pilot his small boat into the city's harbor. At this point the tensions rise between the three, particularly between Thacker, who is white and Burton, who is black.

Video
ID : 1
Format : AVC
Format/Info : Advanced Video Codec
Format profile : [email protected]
Format settings : CABAC / 5 Ref Frames
Format settings, CABAC : Yes
Format settings, Reference frames : 5 frames
Codec ID : V_MPEG4/ISO/AVC
Duration : 1 h 34 min
Bit rate : 13.4 Mb/s
Width : 1 920 pixels
Height : 824 pixels
Display aspect ratio : 2.35:1
Frame rate mode : Constant
Frame rate : 23.976 (24000/1001/189150) FPS
Color space : YUV
Chroma subsampling : 4:2:0
Bit depth : 8 bits
Scan type : Progressive
Bits/(Pixel*Frame) : 0.352
Stream size : 8.65 GiB (88%)
Writing library : x264 core 158 r2988 7817004
Encoding settings : cabac=1 / ref=5 / deblock=1:-3:-3 / analyse=0x3:0x113 / me=umh / subme=8 / psy=1 / psy_rd=1.10:0.00 / mixed_ref=1 / me_range=32 / chroma_me=1 / trellis=2 / 8x8dct=1 / cqm=0 / deadzone=21,11 / fast_pskip=1 / chroma_qp_offset=-2 / threads=26 / lookahead_threads=4 / sliced_threads=0 / nr=0 / decimate=1 / interlaced=0 / bluray_compat=0 / constrained_intra=0 / bframes=3 / b_pyramid=2 / b_adapt=2 / b_bias=0 / direct=3 / weightb=1 / open_gop=0 / weightp=2 / keyint=240 / keyint_min=24 / scenecut=40 / intra_refresh=0 / rc_lookahead=50 / rc=2pass / mbtree=1 / bitrate=13359 / ratetol=1.0 / qcomp=0.60 / qpmin=0 / qpmax=69 / qpstep=4 / cplxblur=20.0 / qblur=0.5 / ip_ratio=1.40 / aq=3:0.65
Default : Yes
Forced : No
Statistics Tags Issue : no_variable_data 1970-01-01 00:00:00 / no_variable_data 2010-02-22 21:41:29
FromStats_BitRate : 13359273
FromStats_Duration : 01:34:43.720000000
FromStats_FrameCount : 136273
FromStats_StreamSize : 9491296291

Audio
ID : 2
Format : DTS
Format/Info : Digital Theater Systems
Codec ID : A_DTS
Duration : 1 h 34 min
Bit rate mode : Constant
Bit rate : 1 509 kb/s
Channel(s) : 2 channels
Channel layout : L R
Sampling rate : 48.0 kHz
Frame rate : 93.750 FPS (512 SPF)
Bit depth : 24 bits
Compression mode : Lossy
Stream size : 1 022 MiB (10%)
Language : English
Default : Yes
Forced : No
Statistics Tags Issue : no_variable_data 1970-01-01 00:00:00 / no_variable_data 2010-02-22 21:41:29
FromStats_BitRate : 1509000
FromStats_Duration : 01:34:43.712000000
FromStats_FrameCount : 532848
FromStats_StreamSize : 1072090176

Text #1
ID : 3
Format : UTF-8
Codec ID : S_TEXT/UTF8
Codec ID/Info : UTF-8 Plain Text
Language : English
Default : No
Forced : No
Statistics Tags Issue : no_variable_data 1970-01-01 00:00:00 / no_variable_data 2010-02-22 21:41:29
FromStats_BitRate : 47
FromStats_Duration : 01:32:19.909000000
FromStats_FrameCount : 1026
FromStats_StreamSize : 32884

Text #2
ID : 4
Format : UTF-8
Codec ID : S_TEXT/UTF8
Codec ID/Info : UTF-8 Plain Text
Title : SDH
Language : English
Default : No
Forced : No
Statistics Tags Issue : no_variable_data 1970-01-01 00:00:00 / no_variable_data 2010-02-22 21:41:29
FromStats_BitRate : 51
FromStats_Duration : 01:34:01.969000000
FromStats_FrameCount : 1207
FromStats_StreamSize : 36031

Menu
00:00:00.000 : en:Chapter 01
00:01:28.088 : en:Chapter 02
00:05:46.846 : en:Chapter 03
00:09:08.548 : en:Chapter 04
00:12:03.139 : en:Chapter 05
00:17:00.478 : en:Chapter 06
00:19:19.658 : en:Chapter 07
00:23:15.394 : en:Chapter 08
00:25:14.513 : en:Chapter 09
00:29:09.498 : en:Chapter 10
00:32:39.499 : en:Chapter 11
00:35:24.873 : en:Chapter 12
00:37:53.313 : en:Chapter 13
00:41:26.484 : en:Chapter 14
00:43:56.634 : en:Chapter 15
00:46:23.823 : en:Chapter 16
00:50:13.594 : en:Chapter 17
00:53:19.822 : en:Chapter 18
00:58:46.440 : en:Chapter 19
01:03:19.337 : en:Chapter 20
01:04:29.866 : en:Chapter 21
01:07:56.698 : en:Chapter 22
01:12:14.330 : en:Chapter 23
01:17:19.635 : en:Chapter 24
01:20:31.452 : en:Chapter 25
01:23:31.131 : en:Chapter 26
01:26:39.486 : en:Chapter 27
01:30:28.715 : en:Chapter 28
01:34:26.703 : en:Chapter 29





1 个附件 售价 大小 下载 时间

The.World.The.Flesh.and.The.Devil.1959.1080p.BluRay.x264-PSYCHD.zip 0 金币 50.85K 42 次 6天前

#1楼
发帖时间:2020-09-17 08:53:56   |   回复数:0
游客组