q3r3
武林盟主

[更 早] [欧美] [剧情] [BD-1080P] 正午前七天 Seven.Days.to.Noon.1950.1080p.BluRay.x264-PSYCHD 9.85GB

-->

帖子完整标题:正午前七天 Seven.Days.to.Noon.1950.1080p.BluRay.x264-PSYCHD 9.85GB



◎译  名 正午前七天
◎片  名 Seven Days to Noon
◎年  代 1950
◎产  地 英国
◎类  别 剧情 / 惊悚
◎语  言 英语
◎上映日期 1950-10-10
◎IMDb评分 7/10 from 1431 users
◎IMDb链接 https://www.imdb.com/title/tt0042949/
◎豆瓣评分 6.6/10 from 51 users
◎豆瓣链接 https://movie.douban.com/subject/3172411/
◎片  长 94 分钟
◎导  演 约翰·博尔廷 John Boulting / 罗伊·博尔廷 Roy Boulting
◎编  剧 Frank Harvey / 詹姆斯·伯纳德 James Bernard / 保罗·戴恩 Paul Dehn / 罗伊·博尔廷 Roy Boulting
◎主  演 巴里·琼斯 Barry Jones
      奥莉芙·斯隆 Olive Sloane
      希拉·马纳汉 Sheila Manahan
      Wyndham Goldie
      维克多·麦德瑞 Victor Maddern
      山姆·基德 Sam Kydd
      格佛雷·肯 Geoffrey Keen
      Marie Ney
      Merrill Mueller
      Arthur Skinner
      Michael Ward
      玛丽安·斯通 Marianne Stone
      约翰·斯特拉顿 John Stratton
      Henry McGee
      John Snagge
      布鲁斯·西顿 Bruce Seton
      拉塞尔·沃特斯 Russell Waters
      Walter Horsbrugh
      琼·希克森 Joan Hickson
      安德鲁·莫瑞尔 André Morell
      休·克洛斯 Hugh Cross
      乔斯·雅克兰德 Joss Ackland
      James Knight
      Gerald Anderson
      罗纳德·亚当 Ronald Adam
      简·安德森 Jean Anderson
      Martin Boddey
      Esme Beringer
      Maurice Colbourne
      欧内斯特·克拉克 Ernest Clark
      Charles Doran
      Alec Faversham
      鲁珀特·戴维斯 Rupert Davies
      Edwin Ellis
      Willoughby Gray
      帕特里克·麦克尼 Patrick Macnee

◎标  签 英国 | 英国电影 | 1950 | 1950s | 英國 | 核弹 | 悬疑 | JohnBoulting

◎简  介

  威灵顿教授是一位从事高度机密性政府研究工作的科学家。他写信给唐宁街10号威胁说如果首相不同意他的要求,他就会在10日之内炸掉房子,这一举动受到了愚弄。当威灵顿消失之后,警报响起,很快整个伦敦陷入了对他的搜捕行动...

◎获奖情况

  第24届奥斯卡金像奖 ?(1952)
  最佳电影故事 詹姆斯·伯纳德?/?保罗·戴恩
  
  第11届威尼斯电影节 ?(1950)
  主竞赛单元金狮奖(提名) 罗伊·博尔廷?/?约翰·博尔廷

Video
ID : 1
Format : AVC
Format/Info : Advanced Video Codec
Format profile : [email protected]
Format settings : CABAC / 5 Ref Frames
Format settings, CABAC : Yes
Format settings, Reference frames : 5 frames
Codec ID : V_MPEG4/ISO/AVC
Duration : 1 h 36 min
Bit rate : 13.0 Mb/s
Width : 1 440 pixels
Height : 1 080 pixels
Display aspect ratio : 4:3
Frame rate mode : Constant
Frame rate : 23.976 (24000/1001/189150) FPS
Color space : YUV
Chroma subsampling : 4:2:0
Bit depth : 8 bits
Scan type : Progressive
Bits/(Pixel*Frame) : 0.350
Stream size : 8.62 GiB (88%)
Writing library : x264 core 158 r2988 7817004
Encoding settings : cabac=1 / ref=5 / deblock=1:-3:-3 / analyse=0x3:0x113 / me=umh / subme=8 / psy=1 / psy_rd=1.15:0.00 / mixed_ref=1 / me_range=32 / chroma_me=1 / trellis=2 / 8x8dct=1 / cqm=0 / deadzone=21,11 / fast_pskip=1 / chroma_qp_offset=-2 / threads=34 / lookahead_threads=5 / sliced_threads=0 / nr=0 / decimate=1 / interlaced=0 / bluray_compat=0 / constrained_intra=0 / bframes=3 / b_pyramid=2 / b_adapt=2 / b_bias=0 / direct=3 / weightb=1 / open_gop=0 / weightp=2 / keyint=240 / keyint_min=24 / scenecut=40 / intra_refresh=0 / rc_lookahead=50 / rc=2pass / mbtree=1 / bitrate=13038 / ratetol=1.0 / qcomp=0.60 / qpmin=0 / qpmax=69 / qpstep=4 / cplxblur=20.0 / qblur=0.5 / ip_ratio=1.40 / aq=3:0.65
Default : Yes
Forced : No
Statistics Tags Issue : no_variable_data 1970-01-01 00:00:00 / no_variable_data 2010-02-22 21:41:29
FromStats_BitRate : 13036498
FromStats_Duration : 01:36:48.636000000
FromStats_FrameCount : 139268
FromStats_StreamSize : 9465534416

Audio
ID : 2
Format : DTS
Format/Info : Digital Theater Systems
Codec ID : A_DTS
Duration : 1 h 36 min
Bit rate mode : Constant
Bit rate : 1 509 kb/s
Channel(s) : 2 channels
Channel layout : L R
Sampling rate : 48.0 kHz
Frame rate : 93.750 FPS (512 SPF)
Bit depth : 24 bits
Compression mode : Lossy
Stream size : 1.02 GiB (10%)
Language : English
Default : Yes
Forced : No
Statistics Tags Issue : no_variable_data 1970-01-01 00:00:00 / no_variable_data 2010-02-22 21:41:29
FromStats_BitRate : 1508999
FromStats_Duration : 01:36:48.662000000
FromStats_FrameCount : 544562
FromStats_StreamSize : 1095658744

Text
ID : 3
Format : UTF-8
Codec ID : S_TEXT/UTF8
Codec ID/Info : UTF-8 Plain Text
Language : English
Default : No
Forced : No
Statistics Tags Issue : no_variable_data 1970-01-01 00:00:00 / no_variable_data 2010-02-22 21:41:29
FromStats_BitRate : 74
FromStats_Duration : 01:33:14.214000000
FromStats_FrameCount : 1243
FromStats_StreamSize : 52259

Menu
00:00:00.000 : en:Chapter 01
00:08:36.808 : en:Chapter 02
00:21:16.066 : en:Chapter 03
00:33:43.980 : en:Chapter 04
00:45:04.660 : en:Chapter 05
00:57:55.430 : en:Chapter 06
01:12:31.889 : en:Chapter 07
01:22:51.258 : en:Chapter 08





1 个附件 售价 大小 下载 时间

Seven.Days.to.Noon.1950.1080p.BluRay.x264-PSYCHD.zip 0 金币 50.80K 49 次 9天前

#1楼
发帖时间:2020-09-17 08:50:57   |   回复数:0
游客组