q3r3
武林盟主

[2019] [日本] [剧情] [BD-1080P] 漫长的告别 A.Long.Goodbye.2019.JAPANESE.1080p.BluRay.x264.DTS-CHD 8.02GB

-->

帖子完整标题:漫长的告别 A.Long.Goodbye.2019.JAPANESE.1080p.BluRay.x264.DTS-CHD 8.02GB



◎译  名 漫长的告别/A Long Goodbye/The Long Good-Bye/甜咖喱之味(港)
◎片  名 長いお別れ
◎年  代 2019
◎产  地 日本
◎类  别 剧情 / 家庭
◎语  言 日语
◎上映日期 2019-03-26(香港国际电影节) / 2019-05-31(日本) / 2020-08-28(中国大陆)
◎IMDb评分 6.9/10 from 311 users
◎IMDb链接 https://www.imdb.com/title/tt9657904/
◎豆瓣评分 7.7/10 from 17857 users
◎豆瓣链接 https://movie.douban.com/subject/30327897/
◎片  长 127分钟
◎导  演 中野量太 Ryota Nakano
◎编  剧 中野量太 Ryota Nakano / 大野敏哉 Ono Toshiya / 中岛京子 Ky?ko Nakajima
◎主  演 苍井优 Yu Aoi
      竹内结子 Y?ko Takeuchi
      松原智惠子 Chieko Matsubara
      山崎努 Tsutomu Yamazaki
      蒲田优惟人 Yuito Kamata
      中村伦也 Tomoya Nakamura
      北村有起哉 Yukiya Kitamura
      杉田雷麟 Rairu Sugita
      清水久留巳 Kurumi Shimizu
      仓野章子 Akiko Kurano
      不破万作 Mansaku Fuwa
      冈山一 Hajime Okayama
      池谷伸枝 Nobue Iketani
      藤原季节 Kisetsu Fujiwara
      小市慢太郎 Mantar? Koichi
      松泽匠 Takumi Matsuzawa

◎标  签 日本 | 家庭 | 亲情 | 温情 | 2019 | 剧情 | 人生 | 治愈

◎简  介

  本片改编自中岛京子同名小说,讲述原是中学校长的父亲(山崎努饰)被确诊为认知障碍后,他是如何和妻子曜子(松原智恵子饰)及两个爱女(竹内结子、苍井优饰)度过接下来的时光的。

◎获奖情况

  第6届豆瓣电影年度榜单 ?(2019)
  评分最高的日本电影(提名)

Video
ID : 1
Format : AVC
Format/Info : Advanced Video Codec
Format profile : [email protected]
Format settings : CABAC / 4 Ref Frames
Format settings, CABAC : Yes
Format settings, Reference frames : 4 frames
Codec ID : V_MPEG4/ISO/AVC
Duration : 2 h 7 min
Bit rate : 7 461 kb/s
Width : 1 920 pixels
Height : 1 038 pixels
Display aspect ratio : 1.85:1
Frame rate mode : Constant
Frame rate : 24.000 FPS
Color space : YUV
Chroma subsampling : 4:2:0
Bit depth : 8 bits
Scan type : Progressive
Bits/(Pixel*Frame) : 0.156
Stream size : 6.67 GiB (83%)
Writing library : x264 core 157 r2867+150 7e91e0e t_mod_Custom_2 [[email protected] X86_64]
Encoding settings : cabac=1 / ref=4 / deblock=1:-3:-3 / analyse=0x3:0x133 / me=umh / subme=11 / psy=1 / fade_compensate=0.00 / psy_rd=0.90:0.10 / mixed_ref=1 / me_range=64 / chroma_me=1 / trellis=2 / 8x8dct=1 / cqm=0 / deadzone=21,11 / fast_pskip=0 / chroma_qp_offset=-4 / threads=32 / lookahead_threads=5 / sliced_threads=0 / nr=0 / decimate=1 / interlaced=0 / bluray_compat=0 / constrained_intra=0 / fgo=0 / bframes=8 / b_pyramid=2 / b_adapt=2 / b_bias=0 / direct=3 / weightb=1 / open_gop=0 / weightp=2 / keyint=250 / keyint_min=24 / scenecut=40 / intra_refresh=0 / rc_lookahead=60 / rc=crf / mbtree=0 / crf=18.0000 / qcomp=0.70 / qpmin=0:0:0 / qpmax=69:69:69 / qpstep=4 / vbv_maxrate=35000 / vbv_bufsize=35000 / crf_max=0.0 / nal_hrd=none / filler=0 / ip_ratio=1.40 / pb_ratio=1.30 / aq=3:1.00 / aq-sensitivity=10.00 / aq-factor=1.00:1.00:1.00 / aq2=0 / aq3=0
Language : Japanese
Default : Yes
Forced : No

Audio
ID : 2
Format : DTS
Format/Info : Digital Theater Systems
Codec ID : A_DTS
Duration : 2 h 7 min
Bit rate mode : Constant
Bit rate : 1 509 kb/s
Channel(s) : 6 channels
Channel layout : C L R Ls Rs LFE
Sampling rate : 48.0 kHz
Frame rate : 93.750 FPS (512 SPF)
Bit depth : 16 bits
Compression mode : Lossy
Stream size : 1.35 GiB (17%)
Language : Japanese
Default : Yes
Forced : No

Text
ID : 3
Format : UTF-8
Codec ID : S_TEXT/UTF8
Codec ID/Info : UTF-8 Plain Text
Duration : 2 h 2 min
Bit rate : 33 b/s
Count of elements : 1326
Stream size : 30.2 KiB (0%)
Language : English
Default : Yes
Forced : No

Menu
00:00:00.000 : en:绗?01 绔?
00:09:32.000 : en:绗?02 绔?
00:18:43.375 : en:绗?03 绔?
00:26:09.917 : en:绗?04 绔?
00:33:00.417 : en:绗?05 绔?
00:40:14.792 : en:绗?06 绔?
00:46:50.500 : en:绗?07 绔?
00:55:24.917 : en:绗?08 绔?
01:02:35.708 : en:绗?09 绔?
01:08:13.917 : en:绗?10 绔?
01:16:15.375 : en:绗?11 绔?
01:23:56.792 : en:绗?12 绔?
01:29:19.042 : en:绗?13 绔?
01:34:32.292 : en:绗?14 绔?
01:39:41.083 : en:绗?15 绔?
01:45:33.417 : en:绗?16 绔?
01:56:27.042 : en:绗?17 绔?
02:04:31.000 : en:绗?18 绔?





1 个附件 售价 大小 下载 时间

A.Long.Goodbye.2019.JAPANESE.1080p.BluRay.x264.DTS-CHD.zip 0 金币 41.58K 273 次 9天前

#1楼
发帖时间:2020-09-17 08:39:40   |   回复数:0
游客组