q3r3
武林盟主

[2017] [其他] [喜剧] [BD-1080P] 安娜和世界末日/安娜与末世 Anna.and.The.Apocalypse.2017.THEATRICAL.1080p.BluRay.x264-PSYCHD 6

-->

帖子完整标题:安娜和世界末日/安娜与末世 Anna.and.The.Apocalypse.2017.THEATRICAL.1080p.BluRay.x264-PSYCHD 6.56GB



◎译  名 安娜和世界末日/安娜与末世
◎片  名 Anna and the Apocalypse
◎年  代 2017
◎产  地 美国,英国
◎类  别 喜剧 / 恐怖 / 歌舞
◎语  言 英语
◎上映日期 2017-09-22(奇幻电影节) / 2018-11-29(澳大利亚)
◎IMDb评分 6/10 from 9215 users
◎IMDb链接 https://www.imdb.com/title/tt6433880/
◎豆瓣评分 5.8/10 from 759 users
◎豆瓣链接 https://movie.douban.com/subject/26956662/
◎片  长 93分钟
◎导  演 约翰·迈克菲尔 John McPhail
◎编  剧 艾伦·迈克唐纳 Alan McDonald   / 莱恩·迈克亨利 Ryan McHenry
◎主  演 艾拉·亨特 Ella Hunt
      马尔科姆·卡明 Malcolm Cumming
      莎拉·斯维尔 Sarah Swire
      克里斯托弗·莱沃 Christopher Leveaux
      玛里·休 Marli Siu
      本·威金斯 Ben Wiggins
      马克·本顿 Mark Benton
      保罗·凯耶 Paul Kaye
      肖恩·康纳 Sean Connor
      约翰·温切斯特 John Winchester
      艾拉·贾维斯 Ella Jarvis
      杰基·伯德 Jackie Bird

◎标  签 丧尸 | 歌舞 | 喜剧 | 恐怖 | 英国 | 美国 | 惊悚 | 2018

◎简  介

  一部混杂音乐剧和丧尸电影的喜剧片,这部僵尸歌舞片的框架基于2010年英国电影学院奖获奖短片《僵尸音乐剧》(暂译)(ZombieMusical),讲述了一大波僵尸穷追猛打一撮人,他们边唱边打,不断求生的故事。电影取景地为苏格兰,由艾拉·亨特出演安娜,马克·本顿饰演安娜的父亲,保罗·凯耶出演反派。

Video
ID : 1
Format : AVC
Format/Info : Advanced Video Codec
Format profile : [email protected]
Format settings : CABAC / 5 Ref Frames
Format settings, CABAC : Yes
Format settings, Reference frames : 5 frames
Codec ID : V_MPEG4/ISO/AVC
Duration : 1 h 37 min
Bit rate : 8 841 kb/s
Width : 1 920 pixels
Height : 808 pixels
Display aspect ratio : 2.40:1
Frame rate mode : Constant
Frame rate : 24.000 FPS
Color space : YUV
Chroma subsampling : 4:2:0
Bit depth : 8 bits
Scan type : Progressive
Bits/(Pixel*Frame) : 0.237
Stream size : 5.90 GiB (90%)
Writing library : x264 core 158 r2988 7817004
Encoding settings : cabac=1 / ref=5 / deblock=1:-3:-3 / analyse=0x3:0x113 / me=umh / subme=8 / psy=1 / psy_rd=1.00:0.00 / mixed_ref=1 / me_range=32 / chroma_me=1 / trellis=2 / 8x8dct=1 / cqm=0 / deadzone=21,11 / fast_pskip=1 / chroma_qp_offset=-2 / threads=24 / lookahead_threads=4 / sliced_threads=0 / nr=0 / decimate=1 / interlaced=0 / bluray_compat=0 / constrained_intra=0 / bframes=3 / b_pyramid=2 / b_adapt=2 / b_bias=0 / direct=3 / weightb=1 / open_gop=0 / weightp=2 / keyint=240 / keyint_min=24 / scenecut=40 / intra_refresh=0 / rc_lookahead=50 / rc=2pass / mbtree=1 / bitrate=8841 / ratetol=1.0 / qcomp=0.60 / qpmin=0 / qpmax=69 / qpstep=4 / cplxblur=20.0 / qblur=0.5 / ip_ratio=1.40 / aq=3:0.80
Default : Yes
Forced : No
Statistics Tags Issue : no_variable_data 1970-01-01 00:00:00 / no_variable_data 2010-02-22 21:41:29
FromStats_BitRate : 8836590
FromStats_Duration : 01:37:40.959000000
FromStats_FrameCount : 140663
FromStats_StreamSize : 6473861582

Audio
ID : 2
Format : DTS
Format/Info : Digital Theater Systems
Codec ID : A_DTS
Duration : 1 h 37 min
Bit rate mode : Constant
Bit rate : 768 kb/s
Channel(s) : 6 channels
Channel layout : C L R Ls Rs LFE
Sampling rate : 48.0 kHz
Frame rate : 93.750 FPS (512 SPF)
Bit depth : 24 bits
Compression mode : Lossy
Stream size : 537 MiB (8%)
Language : English
Default : Yes
Forced : No
Statistics Tags Issue : no_variable_data 1970-01-01 00:00:00 / no_variable_data 2010-02-22 21:41:29
FromStats_BitRate : 767999
FromStats_Duration : 01:37:40.971000000
FromStats_FrameCount : 549466
FromStats_StreamSize : 562653184

Text #1
ID : 3
Format : UTF-8
Codec ID : S_TEXT/UTF8
Codec ID/Info : UTF-8 Plain Text
Language : English
Default : No
Forced : No
Statistics Tags Issue : no_variable_data 1970-01-01 00:00:00 / no_variable_data 2010-02-22 21:41:29
FromStats_BitRate : 49
FromStats_Duration : 01:37:23.375000000
FromStats_FrameCount : 1181
FromStats_StreamSize : 36234

Text #2
ID : 4
Format : UTF-8
Codec ID : S_TEXT/UTF8
Codec ID/Info : UTF-8 Plain Text
Title : SDH
Language : English
Default : No
Forced : No
Statistics Tags Issue : no_variable_data 1970-01-01 00:00:00 / no_variable_data 2010-02-22 21:41:29
FromStats_BitRate : 56
FromStats_Duration : 01:37:27.000000000
FromStats_FrameCount : 1325
FromStats_StreamSize : 41173

Menu
00:00:00.000 : en:Chapter 01
00:04:50.417 : en:Chapter 02
00:11:27.208 : en:Chapter 03
00:18:23.042 : en:Chapter 04
00:26:14.667 : en:Chapter 05
00:33:09.708 : en:Chapter 06
00:41:31.000 : en:Chapter 07
00:48:33.875 : en:Chapter 08
00:56:56.500 : en:Chapter 09
01:05:47.917 : en:Chapter 10
01:20:00.708 : en:Chapter 11
01:31:00.667 : en:Chapter 12





1 个附件 售价 大小 下载 时间

Anna.and.The.Apocalypse.2017.THEATRICAL.1080p.BluRay.x264-PSYCHD.zip 0 金币 34.45K 84 次 6天前

#1楼
发帖时间:2020-09-17 08:36:00   |   回复数:0
游客组