q3r3
武林盟主

[2009] [日本] [剧情] [BD-1080P] 赌博默示录 Gambling.Apocalypse.Kaiji.2009.1080p.BluRay.x264-LCHD 8.74GB

-->

帖子完整标题:赌博默示录 Gambling.Apocalypse.Kaiji.2009.1080p.BluRay.x264-LCHD 8.74GB



◎译  名 赌博默示录/Kaiji: Jinsei gyakuten gêmu/Kaiji: The Ultimate Gambler/开司:人生逆转游戏/赌博默示录:人生逆转游戏
◎片  名 カイジ 人生逆転ゲーム
◎年  代 2009
◎产  地 日本
◎类  别 剧情
◎语  言 日语
◎上映日期 2009-10-10(日本)
◎IMDb评分 6.5/10 from 1338 users
◎IMDb链接 https://www.imdb.com/title/tt1309449/
◎豆瓣评分 7.2/10 from 24035 users
◎豆瓣链接 https://movie.douban.com/subject/3259956/
◎片  长 129分钟
◎导  演 佐藤东弥 T?ya Sat?
◎编  剧 大森美香 Mika Ohmori / 福本伸行 Nobuyuki Fukumoto
◎主  演 藤原龙也 Tatsuya Fujiwara
      天海祐希 Yuki Amami
      香川照之 Teruyuki Kagawa
      山本太郎 Tar? Yamamoto
      光石研 Ken Mitsuishi
      松山研一 Ken'ichi Matsuyama
      松尾铃木 Suzuki Matsuo
      佐藤庆 Kei Sat?
      吉高由里子 Yuriko Yoshitaka
      成河 Songha
      载宁龙二 Ryuuji Sainei
      尚玄 Shogen
      铃木亮平 Ryohei Suzuki
      丸山智己 Tomomi Maruyama
      村田充 Mitsuru Murata
      罇真佐子 Masako Motai

◎标  签 日本 | 日本电影 | 天海祐希 | 藤原龙也 | 藤原竜也 | 2009 | 香川照之 | 剧情

◎简  介

  已经奔三的伊藤开司(藤原龙也 饰)做着无聊乏味的便利店员工作,对财富的渴望换来的不过是些无奈失落。某日,一位名叫远藤澟子(天海佑希 饰)的女人带领手下找到伊藤,要求他作为担保人偿还巨额高利贷债务。拮据的伊藤无力清债,只得按照远藤的建议登上“希望号”赌船奋力一搏。但在上船的那一刻起,伊藤以及其他众多同病相连的所谓“失败者”便陷入了巨大财富帝国的圈套。在赌博游戏中失败的伊藤众人,从此沦为帝国的奴隶,日日在地下工程中劳作,以期有朝一日能够脱离债务重返自由。帝国主管利川根(香川照之 饰)等人冷血无情,用尽招数榨取奴隶价值,不堪忍受剥削的伊藤最终选择了九死一生的“勇者之路”,用生命为赌注向利川根发起挑战……
  
  本片根据著名同名漫画改编。

Video
ID : 1
Format : AVC
Format/Info : Advanced Video Codec
Format profile : [email protected]
Format settings : CABAC / 5 Ref Frames
Format settings, CABAC : Yes
Format settings, Reference frames : 5 frames
Codec ID : V_MPEG4/ISO/AVC
Duration : 2 h 10 min
Bit rate : 8 110 kb/s
Width : 1 920 pixels
Height : 816 pixels
Display aspect ratio : 2.35:1
Frame rate mode : Constant
Frame rate : 23.976 (24000/1001/189150) FPS
Color space : YUV
Chroma subsampling : 4:2:0
Bit depth : 8 bits
Scan type : Progressive
Bits/(Pixel*Frame) : 0.216
Stream size : 7.19 GiB (82%)
Writing library : x264 core 98 r1649 c54c47d
Encoding settings : cabac=1 / ref=5 / deblock=1:-1:-1 / analyse=0x3:0x113 / me=umh / subme=7 / psy=1 / psy_rd=1.00:0.00 / mixed_ref=1 / me_range=16 / chroma_me=1 / trellis=1 / 8x8dct=1 / cqm=0 / deadzone=21,11 / fast_pskip=1 / chroma_qp_offset=-2 / threads=6 / sliced_threads=0 / nr=0 / decimate=1 / interlaced=0 / constrained_intra=0 / bframes=3 / b_pyramid=2 / b_adapt=2 / b_bias=0 / direct=3 / weightb=1 / weightp=2 / keyint=250 / keyint_min=25 / scenecut=40 / intra_refresh=0 / rc_lookahead=40 / rc=2pass / mbtree=1 / bitrate=8110 / ratetol=1.0 / qcomp=0.60 / qpmin=10 / qpmax=51 / qpstep=4 / cplxblur=20.0 / qblur=0.5 / vbv_maxrate=50000 / vbv_bufsize=50000 / ip_ratio=1.40 / aq=1:1.00 / nal_hrd=none
Language : Japanese
Default : Yes
Forced : Yes

Audio
ID : 2
Format : DTS
Format/Info : Digital Theater Systems
Codec ID : A_DTS
Duration : 2 h 10 min
Bit rate mode : Constant
Bit rate : 1 509 kb/s
Channel(s) : 6 channels
Channel layout : C L R Ls Rs LFE
Sampling rate : 48.0 kHz
Frame rate : 93.750 FPS (512 SPF)
Bit depth : 16 bits
Compression mode : Lossy
Stream size : 1.37 GiB (16%)
Language : Japanese
Default : Yes
Forced : Yes

Text
ID : 3
Format : UTF-8
Codec ID : S_TEXT/UTF8
Codec ID/Info : UTF-8 Plain Text
Language : English
Default : Yes
Forced : No





1 个附件 售价 大小 下载 时间

Gambling.Apocalypse.Kaiji.2009.1080p.BluRay.x264-LCHD.zip 0 金币 45.17K 266 次 9天前

#1楼
发帖时间:2020-09-17 08:33:34   |   回复数:0
游客组