q3r3
武林盟主

[2019] [其他] [其他] [BD-1080P] 准备好了没/弑婚游戏 Ready.or.Not.2019.1080p.BluRay.x264.DTS-HD.MA.5.1-CHD 9.42GB

-->

帖子完整标题:准备好了没/弑婚游戏 Ready.or.Not.2019.1080p.BluRay.x264.DTS-HD.MA.5.1-CHD 9.42GB



◎译  名 准备好了没/弑婚游戏(台)/爆血新婚夜(港)
◎片  名 Ready or Not
◎年  代 2019
◎产  地 加拿大,美国
◎类  别 悬疑 / 惊悚 / 恐怖
◎语  言 英语
◎上映日期 2019-08-21(美国)
◎IMDb评分 6.8/10 from 97956 users
◎IMDb链接 https://www.imdb.com/title/tt7798634/
◎豆瓣评分 6.7/10 from 58348 users
◎豆瓣链接 https://movie.douban.com/subject/27594938/
◎片  长 95分钟
◎导  演 马特·贝蒂内利-奥尔平 Matt Bettinelli-Olpin / 泰勒·吉勒特 Tyler Gillett
◎编  剧 盖伊·比尤西克 Guy Busick / R. Christopher Murphy
◎主  演 萨玛拉·维文 Samara Weaving
      安迪·麦克道威尔 Andie MacDowell
      马克·奥布莱恩 Mark O'Brien
      亚当·布罗迪 Adam Brody
      亨利·科泽尼 Henry Czerny
      妮基·瓜达尼 Nicky Guadagni
      梅兰妮·斯科洛凡诺 Melanie Scrofano
      克里斯蒂安·布鲁恩 Kristian Bruun
      伊利斯·莱韦斯克 Elyse Levesque
      约翰·拉尔斯顿 John Ralston
      达妮埃拉·巴博萨 Daniela Barbosa
      伊拉娜·盖尔 Elana Gale
      安德鲁·安东尼 Andrew Anthony
      约翰·浩克斯 John Hawkes
      利亚姆·麦克唐纳 Liam MacDonald
      汉娜克·塔波特 Hanneke Talbot

◎标  签 惊悚 | 血腥 | 黑色幽默 | 恐怖 | 美国 | 悬疑 | 2019 | 婚礼

◎简  介

  讲述年轻姑娘Grace即将嫁入豪门,婚礼当天晚上,丈夫Alex古怪的家族成员邀请她参与一项历史悠久的传统,结果演变成一个离奇恐怖的致命游戏,引发灾难。

Video
ID : 1
Format : AVC
Format/Info : Advanced Video Codec
Format profile : [email protected]
Format settings : CABAC / 4 Ref Frames
Format settings, CABAC : Yes
Format settings, Reference frames : 4 frames
Codec ID : V_MPEG4/ISO/AVC
Duration : 1 h 35 min
Bit rate : 10.4 Mb/s
Width : 1 920 pixels
Height : 804 pixels
Display aspect ratio : 2.40:1
Frame rate mode : Constant
Frame rate : 23.976 (24000/1001/189150) FPS
Color space : YUV
Chroma subsampling : 4:2:0
Bit depth : 8 bits
Scan type : Progressive
Bits/(Pixel*Frame) : 0.282
Stream size : 6.94 GiB (74%)
Title : Ready.or.Not.2019.1080p.BluRay.x264.DTS-HD.MA.5.1-CHD
Writing library : x264 core 157 r2867+150 7e91e0e t_mod_Custom_2 [[email protected] X86_64]
Encoding settings : cabac=1 / ref=4 / deblock=1:-3:-3 / analyse=0x3:0x133 / me=umh / subme=11 / psy=1 / fade_compensate=0.00 / psy_rd=0.90:0.10 / mixed_ref=1 / me_range=64 / chroma_me=1 / trellis=2 / 8x8dct=1 / cqm=0 / deadzone=21,11 / fast_pskip=0 / chroma_qp_offset=-4 / threads=25 / lookahead_threads=4 / sliced_threads=0 / nr=0 / decimate=1 / interlaced=0 / bluray_compat=0 / constrained_intra=0 / fgo=0 / bframes=8 / b_pyramid=2 / b_adapt=2 / b_bias=0 / direct=3 / weightb=1 / open_gop=0 / weightp=2 / keyint=250 / keyint_min=23 / scenecut=40 / intra_refresh=0 / rc_lookahead=60 / rc=crf / mbtree=0 / crf=18.0000 / qcomp=0.70 / qpmin=0:0:0 / qpmax=69:69:69 / qpstep=4 / vbv_maxrate=35000 / vbv_bufsize=35000 / crf_max=0.0 / nal_hrd=none / filler=0 / ip_ratio=1.40 / pb_ratio=1.30 / aq=3:1.00 / aq-sensitivity=10.00 / aq-factor=1.00:1.00:1.00 / aq2=0 / aq3=0
Language : English
Default : Yes
Forced : No

Audio
ID : 2
Format : DTS XLL
Format/Info : Digital Theater Systems
Commercial name : DTS-HD Master Audio
Codec ID : A_DTS
Duration : 1 h 35 min
Bit rate mode : Variable
Bit rate : 3 698 kb/s
Channel(s) : 6 channels
Channel layout : C L R Ls Rs LFE
Sampling rate : 48.0 kHz
Frame rate : 93.750 FPS (512 SPF)
Bit depth : 24 bits
Compression mode : Lossless
Stream size : 2.46 GiB (26%)
Title : Ready.or.Not.2019.1080p.BluRay.x264.DTS-HD.MA.5.1-CHD
Language : English
Default : Yes
Forced : No

Text #1
ID : 3
Format : UTF-8
Codec ID : S_TEXT/UTF8
Codec ID/Info : UTF-8 Plain Text
Duration : 1 h 33 min
Bit rate : 51 b/s
Count of elements : 1167
Stream size : 35.4 KiB (0%)
Title : English-SRT
Language : English
Default : No
Forced : No

Text #2
ID : 4
Format : PGS
Muxing mode : zlib
Codec ID : S_HDMV/PGS
Codec ID/Info : Picture based subtitle format used on BDs/HD-DVDs
Duration : 1 h 35 min
Bit rate : 35.2 kb/s
Count of elements : 2726
Stream size : 24.0 MiB (0%)
Title : English-PGS
Language : English
Default : No
Forced : No





1 个附件 售价 大小 下载 时间

Ready.or.Not.2019.1080p.BluRay.x264.DTS-HD.MA.5.1-CHD.zip 0 金币 48.57K 189 次 6天前

#1楼
发帖时间:2020-09-17 08:30:06   |   回复数:0
游客组