q3r3
武林盟主

[更 早] [欧美] [BD-1080P] 别怕黑夜/黑夜勿怕 Dont.Be.Afraid.of.the.Dark.1973.1080p.BluRay.x264-PSYCHD 6.56GB

-->

帖子完整标题:别怕黑夜/黑夜勿怕 Dont.Be.Afraid.of.the.Dark.1973.1080p.BluRay.x264-PSYCHD 6.56GB



◎译  名 别怕黑夜/黑夜勿怕
◎片  名 Don't Be Afraid of the Dark
◎年  代 1973
◎产  地 美国
◎类  别 
◎语  言 英语
◎上映日期 1973-10-10
◎IMDb评分 6.7/10 from 3308 users
◎IMDb链接 https://www.imdb.com/title/tt0069992/
◎豆瓣评分 /10 from 0 users
◎豆瓣链接 https://movie.douban.com/subject/2174054/
◎片  长 74分钟
◎导  演 约翰·纽兰 John Newland
◎编  剧 Nigel McKeand
◎主  演 金·达比 Kim Darby
      吉姆·哈顿 Jim Hutton
      Nigel McKeand
      莱斯莉·伍兹 Lesley Woods
      威廉姆·西尔维斯特 William Sylvester
      Felix Silla
      Joel Lawrence
      威廉·德马雷斯特 William Demarest
      Tamara De Treaux
      Barbara Anderson
      Ted Swanson
      小佩德罗·阿门达里斯 Pedro Armendáriz Jr.

◎标  签 惊悚 | 恐怖 | 美国 | cult | Horror | 美国电影 | 恐怖电影 | 被忽视的片子

◎简  介

  This is the legendary television movie that scared the living Hell out of an entire generation of impressionable latch-key kids when it was first broadcast on ABC television in October 1973. Those who were lucky enough to see it, never forgot it - and now it's your turn!
  
  A neurotic housewife named Sally and her business exec husband move into Sally's family house, a spooky two story Victorian mansion. When Sally starts the redecorating along with her pompous decorator she comes across a locked room in the house. After arguing with the handyman who insists she should leave the room locked, she finally gets the key. But once she opens her father's old study and has the bricks from the fireplace removed, strange things begin to happen.
  
  Sally begins to see small creatures everywhere, but no one will believe her. Her husband dismisses her as neurotic and her friend thinks Sally may be losing her mind. But things take a deadly serious turn when the decorator trips at the top of the stairs and falls to his death. Sally sees a rope laying across the place where he tripped, but when she picks it up to take it; a horrifying little creature pulls it from her grasp. Is she crazy? Or has Sally released demons?

Video
ID : 1
Format : AVC
Format/Info : Advanced Video Codec
Format profile : [email protected]
Format settings : CABAC / 5 Ref Frames
Format settings, CABAC : Yes
Format settings, Reference frames : 5 frames
Codec ID : V_MPEG4/ISO/AVC
Duration : 1 h 14 min
Bit rate : 11.1 Mb/s
Width : 1 440 pixels
Height : 1 080 pixels
Display aspect ratio : 4:3
Frame rate mode : Constant
Frame rate : 23.976 (24000/1001/189150) FPS
Color space : YUV
Chroma subsampling : 4:2:0
Bit depth : 8 bits
Scan type : Progressive
Bits/(Pixel*Frame) : 0.299
Stream size : 5.64 GiB (86%)
Writing library : x264 core 158 r2988 7817004
Encoding settings : cabac=1 / ref=5 / deblock=1:-3:-3 / analyse=0x3:0x113 / me=umh / subme=8 / psy=1 / psy_rd=1.00:0.00 / mixed_ref=1 / me_range=32 / chroma_me=1 / trellis=2 / 8x8dct=1 / cqm=0 / deadzone=21,11 / fast_pskip=1 / chroma_qp_offset=-2 / threads=34 / lookahead_threads=5 / sliced_threads=0 / nr=0 / decimate=1 / interlaced=0 / bluray_compat=0 / constrained_intra=0 / bframes=3 / b_pyramid=2 / b_adapt=2 / b_bias=0 / direct=3 / weightb=1 / open_gop=0 / weightp=2 / keyint=240 / keyint_min=24 / scenecut=40 / intra_refresh=0 / rc_lookahead=50 / rc=2pass / mbtree=1 / bitrate=11150 / ratetol=1.0 / qcomp=0.60 / qpmin=0 / qpmax=69 / qpstep=4 / cplxblur=20.0 / qblur=0.5 / ip_ratio=1.40 / aq=3:0.65
Default : Yes
Forced : No
Statistics Tags Issue : no_variable_data 1970-01-01 00:00:00 / no_variable_data 2010-02-22 21:41:29
FromStats_BitRate : 11146394
FromStats_Duration : 01:14:09.487000000
FromStats_FrameCount : 106681
FromStats_StreamSize : 6199467036

Audio
ID : 2
Format : DTS
Format/Info : Digital Theater Systems
Codec ID : A_DTS
Duration : 1 h 14 min
Bit rate mode : Constant
Bit rate : 1 509 kb/s
Channel(s) : 2 channels
Channel layout : L R
Sampling rate : 48.0 kHz
Frame rate : 93.750 FPS (512 SPF)
Bit depth : 24 bits
Compression mode : Lossy
Stream size : 800 MiB (12%)
Language : English
Default : Yes
Forced : No
Statistics Tags Issue : no_variable_data 1970-01-01 00:00:00 / no_variable_data 2010-02-22 21:41:29
FromStats_BitRate : 1508999
FromStats_Duration : 01:14:09.483000000
FromStats_FrameCount : 417139
FromStats_StreamSize : 839283668

Text #1
ID : 3
Format : UTF-8
Codec ID : S_TEXT/UTF8
Codec ID/Info : UTF-8 Plain Text
Language : English
Default : No
Forced : No
Statistics Tags Issue : no_variable_data 1970-01-01 00:00:00 / no_variable_data 2010-02-22 21:41:29
FromStats_BitRate : 57
FromStats_Duration : 01:11:38.961000000
FromStats_FrameCount : 1008
FromStats_StreamSize : 31117

Text #2
ID : 4
Format : UTF-8
Codec ID : S_TEXT/UTF8
Codec ID/Info : UTF-8 Plain Text
Title : SDH
Language : English
Default : No
Forced : No
Statistics Tags Issue : no_variable_data 1970-01-01 00:00:00 / no_variable_data 2010-02-22 21:41:29
FromStats_BitRate : 60
FromStats_Duration : 01:13:52.386000000
FromStats_FrameCount : 1120
FromStats_StreamSize : 33761

Menu
00:00:00.000 : en:Chapter 01
00:02:00.454 : en:Chapter 02
00:05:55.939 : en:Chapter 03
00:09:43.333 : en:Chapter 04
00:11:52.837 : en:Chapter 05
00:13:13.418 : en:Chapter 06
00:16:11.679 : en:Chapter 07
00:18:27.982 : en:Chapter 08
00:20:28.269 : en:Chapter 09
00:23:50.971 : en:Chapter 10
00:26:55.614 : en:Chapter 11
00:29:57.212 : en:Chapter 12
00:32:52.304 : en:Chapter 13
00:35:53.234 : en:Chapter 14
00:39:42.589 : en:Chapter 15
00:42:17.744 : en:Chapter 16
00:45:43.157 : en:Chapter 17
00:48:10.262 : en:Chapter 18
00:52:37.071 : en:Chapter 19
00:57:15.807 : en:Chapter 20
01:02:57.524 : en:Chapter 21
01:06:14.095 : en:Chapter 22
01:09:50.395 : en:Chapter 23
01:13:01.836 : en:Chapter 24





1 个附件 售价 大小 下载 时间

Dont.Be.Afraid.of.the.Dark.1973.1080p.BluRay.x264-PSYCHD.zip 0 金币 34.40K 35 次 6天前

#1楼
发帖时间:2020-09-17 08:23:56   |   回复数:0
游客组