squallzhao
一派掌门

[更 早] [欧美] [喜剧] [BD-1080P] 老爷车/吉纳维芙 Genevieve.1953.1080p.BluRay.x264-PSYCHD 8.75GB

-->

帖子完整标题:老爷车/吉纳维芙 Genevieve.1953.1080p.BluRay.x264-PSYCHD 8.75GB



◎译  名 老爷车 / 吉纳维芙
◎片  名 Genevieve
◎年  代 1953
◎产  地 英国
◎类  别 喜剧
◎语  言 英语
◎上映日期 1953-07(英国)
◎IMDb评分 7.1/10 from 2714 users
◎IMDb链接 https://www.imdb.com/title/tt0045808
◎豆瓣评分 7.8/10 from 75 users
◎豆瓣链接 https://movie.douban.com/subject/1303805/
◎片  长 86 分钟
◎导  演 Henry Cornelius
◎编  剧 William Rose
◎主  演 黛娜·谢里登 Dinah Sheridan
      John Gregson
      凯·肯戴尔 Kay Kendall
      肯尼思·莫尔 Kenneth More


◎标  签 英国 | 喜剧 | 经典老电影 | 英国电影 | 经典 | 1950s | 1953 | 爱情

◎简  介

  艾伦有一辆五十多年前生产的吉纳维芙老爷车。周末了,艾伦报名参加了老爷车俱乐部组织的来往布赖顿的活动。艾伦满心希望妻子文迪也能和自己一同前往,可回到家里才知道,妻子准备出席朋友塔尼娅的周末酒会。当发现艾伦为自己买的礼物后,文迪改变了主意,决定随艾伦一起参加活动。
  浩大的老爷车队出发了,艾伦的老伙计安布若斯带着他新认识的女朋友诺萨尼也在其中。艾伦和安布若斯不仅是一对老朋友,就连他和文迪的婚姻,当初也是安布若斯牵的线。可正因为如此,艾伦一直对婚前文迪和安布若斯的关系持有怀疑,在出席到达布赖顿后的酒会时,当看到翩翩起舞的文迪和安布若斯时,由此产生的醋意使他甚为恼怒,以至于有点不自量力地接受了安布若斯的挑战:返回时,看谁先到威斯敏斯特大桥。
  返回的路上,安布若斯傲慢地让艾伦先走,自己随后追上。在随后的行程中,艾伦和安布若斯虽然相互作弄和算计,但几乎在同一时间到达离大桥不远的地方。这时,戏剧性的场面出现了。就在安布若斯超过自己即将抵达大桥时,安布若斯的老爷车因陷入电车轨道,偏离了正常的方向,而艾伦那辆因超速行驶而几乎散架的吉纳维芙却抢先一步驶上了威斯敏斯特大桥

◎获奖情况

  第27届奥斯卡金像奖(1955)
  最佳故事/编剧(提名) 威廉·罗斯
  剧情/喜剧片最佳配乐(提名) 拉里·艾德勒

  第12届金球奖(1955)
  电影类 最佳外语片

Video
ID : 1
Format : AVC
Format/Info : Advanced Video Codec
Format profile : [email protected]
Format settings : CABAC / 5 Ref Frames
Format settings, CABAC : Yes
Format settings, Reference frames : 5 frames
Codec ID : V_MPEG4/ISO/AVC
Duration : 1 h 26 min
Bit rate : 13.9 Mb/s
Width : 1 488 pixels
Height : 1 080 pixels
Display aspect ratio : 1.378
Frame rate mode : Constant
Frame rate : 24.000 FPS
Color space : YUV
Chroma subsampling : 4:2:0
Bit depth : 8 bits
Scan type : Progressive
Bits/(Pixel*Frame) : 0.360
Stream size : 8.19 GiB (94%)
Writing library : x264 core 158 r2984 3759fcb
Encoding settings : cabac=1 / ref=5 / deblock=1:-3:-3 / analyse=0x3:0x133 / me=umh / subme=9 / psy=1 / psy_rd=1.05:0.00 / mixed_ref=1 / me_range=32 / chroma_me=1 / trellis=2 / 8x8dct=1 / cqm=0 / deadzone=21,11 / fast_pskip=0 / chroma_qp_offset=-2 / threads=34 / lookahead_threads=2 / sliced_threads=0 / nr=0 / decimate=0 / interlaced=0 / bluray_compat=0 / constrained_intra=0 / bframes=3 / b_pyramid=2 / b_adapt=2 / b_bias=0 / direct=3 / weightb=1 / open_gop=0 / weightp=2 / keyint=240 / keyint_min=24 / scenecut=40 / intra_refresh=0 / rc_lookahead=60 / rc=2pass / mbtree=1 / bitrate=13866 / ratetol=1.0 / qcomp=0.60 / qpmin=0 / qpmax=69 / qpstep=4 / cplxblur=20.0 / qblur=0.5 / ip_ratio=1.40 / aq=3:0.70
Default : Yes
Forced : No
Statistics Tags Issue : no_variable_data 1970-01-01 00:00:00 / no_variable_data 2010-02-22 21:41:29
FromStats_BitRate : 13867178
FromStats_Duration : 01:26:17.959000000
FromStats_FrameCount : 124271
FromStats_StreamSize : 8975460373

Audio
ID : 2
Format : AC-3
Format/Info : Audio Coding 3
Commercial name : Dolby Digital
Codec ID : A_AC3
Duration : 1 h 26 min
Bit rate mode : Constant
Bit rate : 640 kb/s
Channel(s) : 6 channels
Channel layout : L R C LFE Ls Rs
Sampling rate : 48.0 kHz
Frame rate : 31.250 FPS (1536 SPF)
Compression mode : Lossy
Stream size : 395 MiB (4%)
Language : English
Service kind : Complete Main
Default : Yes
Forced : No
Statistics Tags Issue : no_variable_data 1970-01-01 00:00:00 / no_variable_data 2010-02-22 21:41:29
FromStats_BitRate : 640000
FromStats_Duration : 01:26:18.016000000
FromStats_FrameCount : 161813
FromStats_StreamSize : 414241280

Menu
00:00:00.000 : en:Chapter 01
00:06:46.333 : en:Chapter 02
00:13:58.167 : en:Chapter 03
00:20:03.375 : en:Chapter 04
00:27:41.125 : en:Chapter 05
00:36:51.125 : en:Chapter 06
00:44:39.583 : en:Chapter 07
00:53:36.708 : en:Chapter 08
00:59:53.875 : en:Chapter 09
01:07:18.125 : en:Chapter 10
01:12:05.333 : en:Chapter 11
01:20:00.083 : en:Chapter 12





1 个附件 售价 大小 下载 时间

Genevieve.1953.1080p.BluRay.x264-PSYCHD.zip 0 金币 45.28K 308 次 9天前

#1楼
发帖时间:2020-08-02 08:56:39   |   回复数:0
游客组